Сегодня идет свободное скачивание без начисления Download

Следствие ведут колобки (1986) HDRip (Серий 4 из 4)

Ответить на тему
 
Автор
Сообщение

Omen ®

Стаж: 5 лет

Сообщений: 190529

Торрент-статистика

Пост 29-Дек-2014 22:27

[Цитировать]

Следствие ведут колобки - Год выпуска: 1986
Производство: СССР, Творческое объединение «Экран»
Жанр: Короткометражный, Детский, Комедия
Режиссер: Александр Татарский, Игорь Ковалев
Персонажи: Леонид Броневой, Алексей Птицын, Станислав Федосов, Михаил Евдокимов
Описание фильма:
Город, где живет пара чокнутых колобков-детективов, где в поисках чего бы стянуть шляются усатый бандюга Карбофос и усатый ворюга Кот, где обитают полосатые слоны и гордые птицы, а также издают районную Кривду. Одним словом, полный дурдом! Ну и естественно, любая русская народная сказка начинается с простого и самого банального похищения слона. Ну, скажете вы, неужто мы не слышали, что все истории начинаются именно так…

Дата мировой премьеры: 2 октября 2008
Дата российской премьеры: 1986
Релиз от: masterkot
Продолжительность: серия по ~ 00:21:00
Качество видео: HDRip
Вид субтитров: Отсутствуют
Видеокодек: AVC
Битрейт видео: ~15.5Mbps
Размер кадра: 1920 х 1080
Аудиокодек: AC3, 2 ch
Битрейт аудио: 192kb/s

Mediainfo:

Код:
General
ID                             : 0 (0x0)
Complete name                  : 4 Серия.m2ts
Format                         : BDAV
Format/Info                    : Blu-ray Video
File size                      : 532 MiB
Duration                       : 4mn 48s
Overall bit rate mode          : Variable
Overall bit rate               : 15.5 Mbps
Maximum Overall bit rate       : 18.0 Mbps
Video
ID                             : 4113 (0x1011)
Menu ID                        : 1 (0x1)
Format                         : AVC
Format/Info                    : Advanced Video Codec
Format profile                 : [url=mailto:High@L4.0]High@L4.0[/url]
Format settings, CABAC         : Yes
Format settings, ReFrames      : 2 frames
Format settings, GOP           : M=2, N=15
Codec ID                       : 27
Duration                       : 4mn 41s
Bit rate mode                  : Variable
Bit rate                       : 14.7 Mbps
Maximum bit rate               : 16.0 Mbps
Width                          : 1 920 pixels
Height                         : 1 080 pixels
Display aspect ratio           : 16:9
Frame rate                     : 29.970 fps
Color space                    : YUV
Chroma subsampling             : 4:2:0
Bit depth                      : 8 bits
Scan type                      : Interlaced
Scan order                     : Top Field First
Bits/(Pixel*Frame)             : 0.236
Stream size                    : 492 MiB (93%)
Audio
ID                             : 4352 (0x1100)
Menu ID                        : 1 (0x1)
Format                         : AC-3
Format/Info                    : Audio Coding 3
Mode extension                 : CM (complete main)
Format settings, Endianness    : Big
Codec ID                       : 129
Duration                       : 4mn 41s
Bit rate mode                  : Constant
Bit rate                       : 192 Kbps
Channel(s)                     : 2 channels
Channel positions              : Front: L R
Sampling rate                  : 48.0 KHz
Bit depth                      : 16 bits
Compression mode               : Lossy
Delay relative to video        : -33ms
Stream size                    : 6.44 MiB (1%)
Скриншоты:
       
Вне форума [Профиль] [ЛС]
Показать сообщения:    
Ответить на тему

Текущее время: Сегодня 01:00

Часовой пояс: GMT + 3



Вы не можете начинать темы
Вы не можете отвечать на сообщения
Вы не можете редактировать свои сообщения
Вы не можете удалять свои сообщения
Вы не можете голосовать в опросах
Вы не можете прикреплять файлы к сообщениям
Вы не можете скачивать файлы