Сегодня идет свободное скачивание без начисления Download

По Ту Сторону Изгороди / Over The Garden Wall (Нат Кэш)[2014.,Детский, Приключения, Сказка] WEB-DL [1080p] (Сезон: 1, Серии: 1-10 из 10)

Ответить на тему
 
Автор
Сообщение

sashau ®

Пол:

Стаж: 5 лет 9 месяцев

Сообщений: 3575

Торрент-статистика

Пост 28-Дек-2014 10:44

[Цитировать]

По Ту Сторону Изгороди / Over The Garden Wall- Год выпуска: 2014
Жанр: Детский, Приключения, Сказка-Режиссер: Нат Кэш
Персонажи: Грег, Вирт и другие-Описание фильма:В центре событий два брата Грег — младший из братьев и Вирт — старший из братьев. Им предстоит путешествие через таинственный и страшный лес, только пройдя его они смогут попасть домой.- -Продолжительность: ~00:11:00 серия
Качество видео: WEB-DL
Перевод: Многоголосый закадровый, любительский
Релиз: Причудики
Роли озвучивали: Ленар Гиматдинов, Александр Беляев, Оксана Тимофеева и С Причудами
Субтитры: Отсутствуют-Видео: 1920x1080 (16:9), 23.976 fps, MPEG-4 AVC, ~ 4 313 kb/s
Аудио 1: Русский | AC3 |2 ch | 48 kHz | ~192 kb/s |
Аудио 2: Английский | AC3 | 2 ch | ~192 kb/s-

Список серий

Часть 1. Старая мельница
Часть 2. Поттсфильдский культ
Часть 3. Школьные глупости
Часть 4. Песни Темного Фонаря
Часть 5. Безумная Любовь
Часть 6. Колыбельная в Стране Лягушек
Часть 7. Звон Колокольчика
Часть 8. Дети в лесу
Часть 9. В неизведанное
Часть 10. Неизведанное

MediaInfo

Общее
Полное имя : D:\Upload\Over.The.Garden.Wall.S01.1080p.WEB-DL.Rus.Eng Pri4udiki\Over.The.Garden.Wall.S01E03.1080p.WEB-DL.Rus.Eng-Pri4udiki.mkv
Формат : Matroska
Версия формата : Version 2
Размер файла : 519 Мбайт
Продолжительность : 11 м.
Общий поток : 6348 Кбит/сек
Дата кодирования : UTC 2014-11-10 19:10:46
Программа кодирования : mkvmerge v5.5.0 ('Healer') built on Apr 6 2012 21:43:24
Библиотека кодирования : libebml v1.2.3 + libmatroska v1.3.0
Attachements : Cover.jpg
Видео
Идентификатор : 1
Формат : AVC
Формат/Информация : Advanced Video Codec
Профиль формата : [url=mailto:High@L4.0]High@L4.0[/url]
Параметр CABAC формата : Да
Параметр ReFrames формата : 4 кадра
Идентификатор кодека : V_MPEG4/ISO/AVC
Продолжительность : 11 м.
Битрейт : 5838 Кбит/сек
Ширина : 1920 пикселей
Высота : 1080 пикселей
Соотношение сторон : 16:9
Режим частоты кадров : Постоянный
Частота кадров : 23,976 кадра/сек
Цветовое пространство : YUV
Субдискретизация насыщенности : 4:2:0
Битовая глубина : 8 бит
Тип развёртки : Прогрессивная
Бит/(Пиксели*Кадры) : 0.117
Размер потока : 477 Мбайт (92%)
Язык : English
Default : Да
Forced : Нет
Основные цвета : BT.709
Характеристики трансфера : BT.709
Коэффициенты матрицы : BT.709
colour_range : Limited
Аудио #1
Идентификатор : 2
Формат : AC-3
Формат/Информация : Audio Coding 3
Расширение режима : CM (complete main)
Параметр Endianness формата : Big
Идентификатор кодека : A_AC3
Продолжительность : 11 м.
Вид битрейта : Постоянный
Битрейт : 192 Кбит/сек
Каналы : 2 канала
Расположение каналов : Front: L R
Частота : 48,0 КГц
Битовая глубина : 16 бит
Метод сжатия : С потерями
Размер потока : 15,7 Мбайт (3%)
Язык : Russian
Default : Да
Forced : Нет
Аудио #2
Идентификатор : 3
Формат : AC-3
Формат/Информация : Audio Coding 3
Расширение режима : CM (complete main)
Параметр Endianness формата : Big
Идентификатор кодека : A_AC3
Продолжительность : 11 м.
Вид битрейта : Постоянный
Битрейт : 192 Кбит/сек
Каналы : 2 канала
Расположение каналов : Front: L R
Частота : 48,0 КГц
Битовая глубина : 16 бит
Метод сжатия : С потерями
Размер потока : 15,7 Мбайт (3%)
Язык : English
Default : Нет
Forced : Нет
Скриншоты:
       
-
Вне форума [Профиль] [ЛС]
Показать сообщения:    
Ответить на тему

Текущее время: Сегодня 13:57

Часовой пояс: GMT + 3



Вы не можете начинать темы
Вы не можете отвечать на сообщения
Вы не можете редактировать свои сообщения
Вы не можете удалять свои сообщения
Вы не можете голосовать в опросах
Вы не можете прикреплять файлы к сообщениям
Вы не можете скачивать файлы