Сегодня идет свободное скачивание без начисления Download

Маша и медведь. Машкины страшилки (Олег Ужинов, Денис Червяцов, Олег Кузовков)(2014.,Мультсериал, Анимация, Детский) DVDRip (Серии 1-2) [ОБНОВЛЯЕМАЯ]

Ответить на тему
 
Автор
Сообщение

sashau ®

Пол:

Стаж: 5 лет 11 месяцев

Сообщений: 3569

Торрент-статистика

Пост 28-Дек-2014 10:26

[Цитировать]

Маша и медведь. Машкины страшилки - Режиссер / Телекомпания: «АНИМАККОРД»
Русское название: Маша и медведь. Машкины страшилки
Год выпуска: 2014
Жанр: Мультсериал, Анимация, Детский
Описание:
Новый проект студии "Анимаккорд" - "Машкины страшилки"... Все дети боятся темноты. Маша раньше тоже так её боялась, что приходилось ей по ночам с фонариком сидеть! Но однажды Маша придумала сказочку про маленького лесного жучка, который тоже боялся темноты... Трепещите! Маша взялась за новый жанр - теперь она рассказывает страшилки!
Роли озвучивали: Алина Кукушкина, Эдуард Назаров, Борис Кутневич
Режиссёр: Олег Ужинов, Денис Червяцов, Олег Кузовков
Продолжительность: Каждая серия х ~ 00:06:00
Видеокодек: XviD
Битрейт видео: ~2000 kb/s
Размер кадра: 720 х 400
Качество видео: DVDRip
Аудиокодек: AC-3, 2ch.
Битрейт аудио: 192 kb/s

Список страшилок

01. Душераздирающая повесть о тёмном лесе и маленьком жучке.
02. Жутко-страшное придание о том, как один мальчик боялся умываться.

MediaInfo

Формат : AVI
Формат/Информация : Audio Video Interleave
Размер файла : 90,7 Мбайт
Продолжительность : 5 м. 44 с.
Общий поток : 2206 Кбит/сек
Программа кодирования : VirtualDubMod 1.5.10.3 | www.virtualdub-fr.org || (build 2550/release)
Библиотека кодирования : VirtualDubMod build 2550/release
Видео
Идентификатор : 0
Формат : MPEG-4 Visual
Профиль формата : Advanced Simple@L5
Параметр BVOP формата : 1
Параметр QPel формата : Нет
Параметр GMC формата : Без точки перехода
Параметр матрицы формата : Default (MPEG)
Идентификатор кодека : XVID
Идентификатор кодека/Подсказка : XviD
Продолжительность : 5 м. 44 с.
Битрейт : 2004 Кбит/сек
Ширина : 720 пикселей
Высота : 400 пикселей
Соотношение сторон : 16:9
Частота кадров : 25,000 кадров/сек
Цветовое пространство : YUV
Субдискретизация насыщенности : 4:2:0
Битовая глубина : 8 бит
Тип развёртки : Прогрессивная
Метод сжатия : С потерями
Бит/(Пиксели*Кадры) : 0.278
Размер потока : 82,4 Мбайт (91%)
Библиотека кодирования : XviD 65
Аудио
Идентификатор : 1
Формат : AC-3
Формат/Информация : Audio Coding 3
Расширение режима : CM (complete main)
Параметр Endianness формата : Big
Идентификатор кодека : 2000
Продолжительность : 5 м. 44 с.
Вид битрейта : Постоянный
Битрейт : 192 Кбит/сек
Каналы : 2 канала
Расположение каналов : Front: L R
Частота : 48,0 КГц
Битовая глубина : 16 бит
Метод сжатия : С потерями
Размер потока : 7,89 Мбайт (9%)
Выравнивание : Разделение по промежуткам
Продолжительность промежутка : 40 мс. (1,00 видеокадр)
Время предзагрузки промежутка : 500 мс.
Заголовок : rus
Скриншоты:        
Вне форума [Профиль] [ЛС]
Показать сообщения:    
Ответить на тему

Текущее время: Сегодня 07:36

Часовой пояс: GMT + 3



Вы не можете начинать темы
Вы не можете отвечать на сообщения
Вы не можете редактировать свои сообщения
Вы не можете удалять свои сообщения
Вы не можете голосовать в опросах
Вы не можете прикреплять файлы к сообщениям
Вы не можете скачивать файлы