Сегодня идет свободное скачивание без начисления Download

Симпсоны / The Simpsons / Сезон: 25 / Серии: 1-22 (22) (Мэтт Гроунинг / Matt Groening) [2013, Мультсериал, комедия, сатира, WEB-DL 1080p] 3xMVO (2x2, VO-production, Nice-Media) + Original

Ответить на тему
 
Автор
Сообщение

Omen ®

Стаж: 5 лет

Сообщений: 190529

Торрент-статистика

Пост 26-Дек-2014 23:32

[Цитировать]

Симпсоны / The Simpsons- Страна: США
Жанр: Мультсериал, комедия, сатира
Продолжительность: ~22 минуты
Год выпуска: 2013
Перевод: Профессиональный (многоголосый закадровый)
Русские субтитры: нет-Режиссёр: Мэтт Гроунинг / Matt Groening
Роли озвучивали: Дэн Кастелланета, Джули Кавнер, Нэнси Картрайт, Ярдли Смит, Гарри Ширер, Хэнк Азария и другие.-Описание: Симпсоны живут в вымышленном городе Спрингфилд, со своим обществом и историей. Гомер - отец семейства, который даёт плохие советы и работает инспектором по безопасности на атомной электростанции; Мардж - любящая мать и жена, старается сохранить спокойствие в семье; Барт - 10 летний хулиган; Лиза - философский 8-летний ребёнок; и Мэгги - младенец, который общается посредством соски.-Все раздачи мультсериала / Сэмпл-Качество: WEB-DL 1080p
Формат: MKV
Видео:
* AVC, 1912x1072, 23,976 fps, ~5000 kbps (1-11, 13 серии)
* AVC, 1916x1076, 23,976 fps, ~5000 kbps (12, 14 серии)
* AVC, 1920x1080, 23,976 fps, ~5000 kbps (15-22 серии)
Аудио Rus: AC3, 48Chz, 2 ch, 192 kbps (2x2)
Аудио Rus: AC3, 48Chz, 2 ch, 192 kbps (VO-production)
Аудио Rus: AC3, 48Chz, 2 ch, 192 kbps (Nice-Media)
Аудио Eng: AC3, 48Chz, 6 ch, 384 kbps
Субтитры: отсутствуют

Подробные технические данные

GeneralUnique ID : 213948949481645094628708845881981392507 (0xA0F5119F58C7F653B55606CF210FD67B)Complete name : C:\The Simpsons (Season 25) WEB-DL 1080p\01. Homerland.mkvFormat : MatroskaFormat version : Version 4 / Version 2File size : 917 MiBDuration : 21mn 10sOverall bit rate : 6 055 KbpsEncoded date : UTC 2014-12-24 16:44:39Writing application : mkvmerge v7.4.0 ('Circles') 64bit built on Dec 12 2014 12:19:56Writing library : libebml v1.3.0 + libmatroska v1.4.1Cover : Yes_STATISTICS_WRITING_APP : mkvmerge v7.4.0 ('Circles') 64bit built on Dec 12 2014 12:19:56_STATISTICS_WRITING_DATE_UTC : 2014-12-24 16:44:39_STATISTICS_TAGS : BPS DURATION NUMBER_OF_FRAMES NUMBER_OF_BYTESDURATION : 00:21:10.560000000NUMBER_OF_FRAMES : 39705NUMBER_OF_BYTES : 30493440
VideoID : 1Format : AVCFormat/Info : Advanced Video CodecFormat profile : High@L4.0Format settings, CABAC : YesFormat settings, ReFrames : 4 framesCodec ID : V_MPEG4/ISO/AVCDuration : 21mn 10sBit rate : 4 975 KbpsWidth : 1 912 pixelsHeight : 1 072 pixelsDisplay aspect ratio : 16:9Frame rate mode : ConstantFrame rate : 23.976 fpsColor space : YUVChroma subsampling : 4:2:0Bit depth : 8 bitsScan type : ProgressiveBits/(Pixel*Frame) : 0.101Stream size : 753 MiB (82%)Language : EnglishDefault : YesForced : NoColor primaries : BT.709Transfer characteristics : BT.709Matrix coefficients : BT.709
Audio #1ID : 2Format : AC-3Format/Info : Audio Coding 3Mode extension : CM (complete main)Format settings, Endianness : BigCodec ID : A_AC3Duration : 21mn 10sBit rate mode : ConstantBit rate : 192 KbpsChannel(s) : 2 channelsChannel positions : Front: L RSampling rate : 48.0 KHzBit depth : 16 bitsCompression mode : LossyStream size : 29.1 MiB (3%)Title : 2x2Language : RussianDefault : YesForced : No
Audio #2ID : 3Format : AC-3Format/Info : Audio Coding 3Mode extension : CM (complete main)Format settings, Endianness : BigCodec ID : A_AC3Duration : 21mn 10sBit rate mode : ConstantBit rate : 192 KbpsChannel(s) : 2 channelsChannel positions : Front: L RSampling rate : 48.0 KHzBit depth : 16 bitsCompression mode : LossyStream size : 29.1 MiB (3%)Title : VO-ProductionLanguage : RussianDefault : NoForced : No
Audio #3ID : 4Format : AC-3Format/Info : Audio Coding 3Mode extension : CM (complete main)Format settings, Endianness : BigCodec ID : A_AC3Duration : 21mn 10sBit rate mode : ConstantBit rate : 192 KbpsChannel(s) : 2 channelsChannel positions : Front: L RSampling rate : 48.0 KHzBit depth : 16 bitsCompression mode : LossyStream size : 29.1 MiB (3%)Title : Nice-MediaLanguage : RussianDefault : NoForced : No
Audio #4ID : 5Format : AC-3Format/Info : Audio Coding 3Mode extension : CM (complete main)Format settings, Endianness : BigCodec ID : A_AC3Duration : 21mn 10sBit rate mode : ConstantBit rate : 384 KbpsChannel(s) : 6 channelsChannel positions : Front: L C R, Side: L R, LFESampling rate : 48.0 KHzBit depth : 16 bitsCompression mode : LossyStream size : 58.2 MiB (6%)Language : EnglishDefault : NoForced : No

Скриншоты

Список серий

01. Гомер среди своих (Homerland)
02. Домик ужасов на дереве XXIV (Treehouse of Horror XXIV)
03. Четыре сожаления и похороны (Four Regrettings and a Funeral)
04. Ты живёшь только один раз (YOLO)
05. Родовые схватки (Labor Pains)
06. Малыш в полном порядке (The Kid Is All Right)
07. Жёлтая отговорка (Yellow Subterfuge)
08. Белый рождественский блюз (White Christmas Blues)
09. Украдите этот эпизод (Steal This Episode)
10. Женатый на капле (Married to the Blob)
11. Очки и Город (Specs and the City)
12. Диггс (Diggs)
13. Человек, который чересчур поднялся (The Man Who Grew Too Much)
14. Его содержание зимой (The Winter of His Content)
15. Война из-за искусства (The War of Art)
16. Вы не должны жить как рефери (You Don't Have to Live Like a Referee)
17. Лука$ (Luca$)
18. Дни будущего будущего (Days of Future Future)
19. Чего ждать, когда Барт ждёт (What to Expect When Bart's Expecting)
20. Я как кирпич (Brick Like Me)
21. Плати братишка (Pay Pal)
22. Жёлтый значок для труса (The Yellow Badge of Cowardge)

Внимание! Раздача ведётся путём добавления новых серий

Внимание! Раздача ведётся путём добавления новых серий; при каждом добавлении создётся новый торрент. Чтобы начать докачку новой серии, пользователям необходимо сделать следующее:
(1) остановить скачивание,
(2) удалить старый торрент у себя из клиента (старые серии удалять не надо),
(3) скачать новый торрент и запустить его у себя в клиенте вместо старого, при этом указать клиенту путь в старую папку куда и должно происходить скачивание новых серий.
Ваш клиент при этом должен произвести хеширование (проверку) старой папки (если не производит сам - помогите ему сделать это), и будет докачивать только те серии, которых у вас ещё нет. Старые серии при этом не удаляются, а продолжают раздаваться!
Eсли вы уже удалили старые серии, то предотвратить повторную закачку старых серий можно, отжав галочку в соответсвующих местах при запуске нового торрента. По возможности, желательно не удалять старые серии как можно дольше, чтобы релизёр не столько продолжал раздавать старые серии, а смог сконцентрироваться на новых.
Вне форума [Профиль] [ЛС]
Показать сообщения:    
Ответить на тему

Текущее время: Сегодня 10:32

Часовой пояс: GMT + 3



Вы не можете начинать темы
Вы не можете отвечать на сообщения
Вы не можете редактировать свои сообщения
Вы не можете удалять свои сообщения
Вы не можете голосовать в опросах
Вы не можете прикреплять файлы к сообщениям
Вы не можете скачивать файлы