Сегодня идет свободное скачивание без начисления Download

Симпсоны / The Simpsons / Сезон: 26 / Серии: 1-8 (22) (Мэтт Гроунинг / Matt Groening) [2014, Мультсериал, комедия, сатира, WEB-DL 1080p] MVO (VO-production) + Original + Subs (Eng)

Ответить на тему
 
Автор
Сообщение

Omen ®

Стаж: 4 года 10 месяцев

Сообщений: 190643

Торрент-статистика

Пост 26-Дек-2014 23:03

[Цитировать]

Симпсоны / The Simpsons- Страна: США
Жанр: Мультсериал, комедия, сатира
Продолжительность: ~22 минуты
Год выпуска: 2014
Перевод: Профессиональный (многоголосый закадровый)
Русские субтитры: нет-Режиссёр: Мэтт Гроунинг / Matt Groening
Роли озвучивали: Дэн Кастелланета, Джули Кавнер, Нэнси Картрайт, Ярдли Смит, Гарри Ширер, Хэнк Азария, Памела Хейден, Тресс МакНилл, Карл Видерготт, Мэгги Росвэлл и другие.-Описание: Симпсоны живут в вымышленном городе Спрингфилд, со своим обществом и историей. Гомер - отец семейства, который даёт плохие советы и работает инспектором по безопасности на атомной электростанции; Мардж - любящая мать и жена, старается сохранить спокойствие в семье; Барт - 10 летний хулиган; Лиза - философский 8-летний ребёнок; и Мэгги - младенец, который общается посредством соски.-Все раздачи мультсериала / Сэмпл-Качество: WEB-DL 1080p
Формат: MKV
Видео: AVC, 1920x1080, 23,976 fps, ~5000 kbps
Аудио Rus: AC3, 48Chz, 2 ch, 256 kbps (VO-production)
Аудио Eng: AC3, 48Chz, 6 ch, 384 kbps
Субтитры: Английские

Подробные технические данные

GeneralUnique ID : 186063133414835615839280430031776889176 (0x8BFA74BDA9836FC7B4D7E820CA85B958)Complete name : C:\The Simpsons (Season 26) WEB-DL 1080p\01. Clown in the Dumps.mkvFormat : MatroskaFormat version : Version 4 / Version 2File size : 782 MiBDuration : 21mn 12sOverall bit rate : 5 156 KbpsEncoded date : UTC 2014-12-23 22:18:17Writing application : mkvmerge v7.4.0 ('Circles') 64bit built on Dec 12 2014 12:19:56Writing library : libebml v1.3.0 + libmatroska v1.4.1Cover : Yes_STATISTICS_WRITING_APP : mkvmerge v7.4.0 ('Circles') 64bit built on Dec 12 2014 12:19:56_STATISTICS_WRITING_DATE_UTC : 2014-12-23 22:18:17_STATISTICS_TAGS : BPS DURATION NUMBER_OF_FRAMES NUMBER_OF_BYTESDURATION : 00:21:12.320000000NUMBER_OF_FRAMES : 39760NUMBER_OF_BYTES : 40714240
VideoID : 1Format : AVCFormat/Info : Advanced Video CodecFormat profile : High@L4.0Format settings, CABAC : YesFormat settings, ReFrames : 4 framesCodec ID : V_MPEG4/ISO/AVCDuration : 21mn 12sBit rate : 4 413 KbpsWidth : 1 920 pixelsHeight : 1 080 pixelsDisplay aspect ratio : 16:9Frame rate mode : ConstantFrame rate : 23.976 fpsColor space : YUVChroma subsampling : 4:2:0Bit depth : 8 bitsScan type : ProgressiveBits/(Pixel*Frame) : 0.089Stream size : 669 MiB (86%)Language : EnglishDefault : YesForced : NoColor primaries : BT.709Transfer characteristics : BT.709Matrix coefficients : BT.709
Audio #1ID : 2Format : AC-3Format/Info : Audio Coding 3Mode extension : CM (complete main)Format settings, Endianness : BigCodec ID : A_AC3Duration : 21mn 12sBit rate mode : ConstantBit rate : 256 KbpsChannel(s) : 2 channelsChannel positions : Front: L RSampling rate : 48.0 KHzBit depth : 16 bitsCompression mode : LossyStream size : 38.8 MiB (5%)Title : VO-productionLanguage : RussianDefault : YesForced : No
Audio #2ID : 3Format : AC-3Format/Info : Audio Coding 3Mode extension : CM (complete main)Format settings, Endianness : BigCodec ID : A_AC3Duration : 21mn 12sBit rate mode : ConstantBit rate : 384 KbpsChannel(s) : 6 channelsChannel positions : Front: L C R, Side: L R, LFESampling rate : 48.0 KHzBit depth : 16 bitsCompression mode : LossyStream size : 58.2 MiB (7%)Language : EnglishDefault : NoForced : No
TextID : 4Format : UTF-8Codec ID : S_TEXT/UTF8Codec ID/Info : UTF-8 Plain TextLanguage : EnglishDefault : NoForced : No

Скриншоты

Список серий

01. Клоун на свалке (Clown in the Dumps)
02. Крушение отношений (The Wreck of the Relationship)
03. Супер франшизу мне (Super Franchise Me)
04. Домик ужасов на дереве XXV (Treehouse of Horror XXV)
05. Обман противоположностей (Opposites A-Frack)
06. Симпсорама (Simpsorama)
07. В огне и смятении (Blazed and Confused)
08. Каверкрафт (Covercraft)

Внимание! Раздача ведётся путём добавления новых серий

Внимание! Раздача ведётся путём добавления новых серий; при каждом добавлении создётся новый торрент. Чтобы начать докачку новой серии, пользователям необходимо сделать следующее:
(1) остановить скачивание,
(2) удалить старый торрент у себя из клиента (старые серии удалять не надо),
(3) скачать новый торрент и запустить его у себя в клиенте вместо старого, при этом указать клиенту путь в старую папку куда и должно происходить скачивание новых серий.
Ваш клиент при этом должен произвести хеширование (проверку) старой папки (если не производит сам - помогите ему сделать это), и будет докачивать только те серии, которых у вас ещё нет. Старые серии при этом не удаляются, а продолжают раздаваться!
Eсли вы уже удалили старые серии, то предотвратить повторную закачку старых серий можно, отжав галочку в соответсвующих местах при запуске нового торрента. По возможности, желательно не удалять старые серии как можно дольше, чтобы релизёр не столько продолжал раздавать старые серии, а смог сконцентрироваться на новых.
Вне форума [Профиль] [ЛС]
Показать сообщения:    
Ответить на тему

Текущее время: Сегодня 01:19

Часовой пояс: GMT + 3



Вы не можете начинать темы
Вы не можете отвечать на сообщения
Вы не можете редактировать свои сообщения
Вы не можете удалять свои сообщения
Вы не можете голосовать в опросах
Вы не можете прикреплять файлы к сообщениям
Вы не можете скачивать файлы