Сегодня идет свободное скачивание без начисления Download

Робокар Поли и его друзья / Robocar Poli ( Lee Dong-woo)[2011-2014.,Детский, Анимационный] WEB-DLRip, SATRip (1-3 сезоны, серии 1-78 из 78 + 26)

Ответить на тему
 
Автор
Сообщение

sashau ®

Пол:

Стаж: 5 лет 9 месяцев

Сообщений: 3575

Торрент-статистика

Пост 23-Дек-2014 15:59

[Цитировать]

Робокар Поли и его друзья / Robocar Poli - Год выпуска: 2011-2014
Жанр: Детский, Анимационный
Перевод: Дублированный
Участники: Робокар Поли и его друзья
Описание фильма:
В каждой серии Робокар Поли и его дружная команда спешит на помошь всем, кто попал в беду. С помощью этого сериала маленькие зрители смогут изучить правила поведения в городе, общения с друзьями и посторонними, научатся совершать добрые и правильные поступки, а так же смогут обезопасить себя и своих близких в повседневной жизни. Образовательный мультсериал "Робокар Поли" в игровой форме учит детишек правилам дорожного движения, поведению рядом с проезжей частью. И даже будучи пешеходами, они смогут чувствовать себя такими же участниками дорожного движения, как и машины.
Продолжительность: 78 х~00:12:25, 26 х~00:07:30
Качество видео: WEB-DLRip, SATRip
Видеокодек: Xvid
Битрейт видео: WEB-DLRip ~1400 Кбит/с, SATRip ~ 1500 kbps.
Размер кадра: 720x400, 688х438
Аудиокодек: AC3 2.0, MP3, 2.0
Битрейт аудио: 192 Кбит/с, 128 Кбит/с

MediaInfo

WEB-DLRip

Видео
Идентификатор : 0
Формат : MPEG-4 Visual
Профиль формата : Advanced Simple@L5
Параметр BVOP формата : 2
Параметр QPel формата : Нет
Параметр GMC формата : Без точки перехода
Параметр матрицы формата : Default (MPEG)
Идентификатор кодека : XVID
Идентификатор кодека/Подсказка : XviD
Продолжительность : 12 м.
Битрейт : 1380 Кбит/сек
Ширина : 720 пикселей
Высота : 400 пикселей
Соотношение сторон : 16:9
Частота кадров : 25,000 кадров/сек
Цветовое пространство : YUV
Субдискретизация насыщенности : 4:2:0
Битовая глубина : 8 бит
Тип развёртки : Прогрессивная
Метод сжатия : С потерями
Бит/(Пиксели*Кадры) : 0.192
Размер потока : 122 Мбайт (87%)
Библиотека кодирования : XviD 73
Аудио
Идентификатор : 1
Формат : AC-3
Формат/Информация : Audio Coding 3
Расширение режима : CM (complete main)
Параметр Endianness формата : Big
Идентификатор кодека : 2000
Продолжительность : 12 м.
Вид битрейта : Постоянный
Битрейт : 192 Кбит/сек
Каналы : 2 канала
Расположение каналов : Front: L R
Частота : 48,0 КГц
Битовая глубина : 16 бит
Метод сжатия : С потерями
Размер потока : 17,0 Мбайт (12%)
Выравнивание : Разделение по промежуткам
Продолжительность промежутка : 40 мс. (1,00 видеокадр)
Время предзагрузки промежутка : 500 мс.

SATRip

General
Format : AVI
Format/Info : Audio Video Interleave
File size : 88.3 MiB
Duration : 7mn 30s
Overall bit rate : 1 642 Kbps
Writing library : VirtualDub build 35390/release
Video
ID : 0
Format : MPEG-4 Visual
Format profile : Advanced Simple@L5
Format settings, BVOP : 2
Format settings, QPel : No
Format settings, GMC : No warppoints
Format settings, Matrix : Default (MPEG)
Codec ID : XVID
Codec ID/Hint : XviD
Duration : 7mn 30s
Bit rate : 1 505 Kbps
Width : 688 pixels
Height : 438 pixels
Display aspect ratio : 1.571
Frame rate : 25.000 fps
Color space : YUV
Chroma subsampling : 4:2:0
Bit depth : 8 bits
Scan type : Progressive
Compression mode : Lossy
Bits/(Pixel*Frame) : 0.200
Stream size : 80.9 MiB (92%)
Writing library : XviD 65
Audio
ID : 1
Format : MPEG Audio
Format version : Version 1
Format profile : Layer 3
Mode : Joint stereo
Mode extension : MS Stereo
Codec ID : 55
Codec ID/Hint : MP3
Duration : 7mn 30s
Bit rate mode : Constant
Bit rate : 128 Kbps
Channel(s) : 2 channels
Sampling rate : 44.1 KHz
Compression mode : Lossy
Stream size : 6.86 MiB (8%)
Alignment : Split accross interleaves
Interleave, duration : 40 ms (1.00 video frame)
Interleave, preload duration : 501 ms

Список серий:

01. Когда сдают тормоза
02. Скулби и его сюрприз
03. История с цементом
04. Новый друг
05. Техосмотр
06. История с привидением
07. Поспешишь, всех насмешишь
08. Похвалите Брунера
09. Доверяй друзьям
10. День рождения Хэлли
11. Куда ты, Клинни
12. Сердитый Мики
13. Я люблю тебя, дедушка!
14. Каждый может ошибиться
15. Конкурс талантов
16. Обещания Скуби
17. Добрая Клини
18. Забывчивый Макс
19. Игра в прятки
20. Мечта Бэнни
21. Дерево дружбы
22. Грязнуля Спуки
23. Как спастись от темноты
24. На чью сторону встать
25. Будьте здоровы
26. Новый друг Вупер
27. Лгунишка Роди Жадный
28. Жадный господин Уиллер
29. Все любят цирк
30. Болото
31. Подарок Мини
32. Лэки, Лэти, Лэпи
33. Давай играть вместе, Пок!
34. Спасибо, Клини
35. Спуки и пчелиный рой
36. Всегда любить себя
37. Экскурсия для Энни
38. Поиски клада
39. Морской друг
40. Любимая внучка
41. Суета вокруг мусора
42. Электрический Скулби
43. Храбрый господин Масти
44. Выслушайте Майки
45. Чистюля Кэп
46. Письмо без адреса
47. Жизнь в нашем городке
48. Жизнь в городке
49. Новый мячик Брунера
50. Я хочу его
51. Где ты, Джин
52. Секрет Пока
53. Проблемный гость
54. Cпасти Хелли
55. Не волнуйся, Скулби!
56. Мой надоедливый младший брат
57. Подарок, который я хочу получить
58. Наша секретная база
59. Новый друг Терри
60. Новая игрушка Хелли
61. Одинокий Микки
62. Раздел территории
63. Давайте порисуем
64. Добро пожаловать, Лифти!
65. Пожалуйста, остановите икоту!
66. Тайна Поли
67. Хочу, чтобы меня пригласили!
68. Мнимая болезнь Спуки
69. Это не мой подарок
70. Будь честен с друзьями!
71. Давайте следовать правилам
72. Мы поможем вам, мистер Билдер!
73. Как разозлить Клини?
74. Рыбка для Макса
75. Жара в городе Брумс
76. Медаль Миссис Белль
77. Кто выше всех
78. Тренировка для Эмбер
Короткометражный
01. Перебегать дорогу опасно
02. Как безопасно перейти дорогу
03. Безопасность в автобусе
04. На дороге с умом
05. Берегитесь слепых зон
06. Чем опасен дождь
07. Правила поведения на дороге
08. Как играть в мяч
09. Безопасная езда на велосипеде
10. Опасность в темноте
11. Когда случаются аварии
12. Создатели безопасных карт
13. Как вести себя на перекрестках
14. Как вести себя на парковке
15. Где можно кататься на роликах
16. Как переходить дорогу
17. Смотри под ноги
18. Безопасная езда на велосипеде
19. Правила безопасности в снежный день
20. Не бегай между машинами
21. Папин рассказ о машинах
22. Несоблюдение пдд на улице
23. Что нужно знать о стройплащадках
24. Ремни безопасности в автобусе
25. Две стороны дороги в школу
26. Викторина по безопасности на дороге
Скриншоты:        
Вне форума [Профиль] [ЛС]
Показать сообщения:    
Ответить на тему

Текущее время: Сегодня 17:36

Часовой пояс: GMT + 3



Вы не можете начинать темы
Вы не можете отвечать на сообщения
Вы не можете редактировать свои сообщения
Вы не можете удалять свои сообщения
Вы не можете голосовать в опросах
Вы не можете прикреплять файлы к сообщениям
Вы не можете скачивать файлы