Сегодня идет свободное скачивание без начисления Download

Аватар: Легенда о Корре / The Legend of Korra / Книга 4: Равновесие / Серии: 1-13 (13) (Хоаким Дос Сантос / Joaquim Dos Santos, ...) [2014, фэнтези, боевик, приключения, ..., WEB-DLRip] MVO (Flux-Team) + Original (Eng)

Ответить на тему
 
Автор
Сообщение

Clavik ®

Пол:

Стаж: 4 года 1 месяц

Сообщений: 2445

Откуда: Украина

Торрент-статистика

Пост 21-Дек-2014 23:45

[Цитировать]

-Легенда о Корре / The Legend of Korra
«There's a new Avatar in town!»
-- Производство: США
Жанр: мультфильм, фэнтези, боевик, приключения, семейный, ...
Год выпуска: 2014 г.
Премьера (мир): 14 апреля 2012, ...
Премьера (РФ): 26 августа 2012
Релиз:
Озвучка: Любительский (многоголосый закадровый) |Flux-Team|
Оригинальный аудиопоток: английский-Перевод: HelenZubr в редакции AndreyP
Текст читали: Natemily, Die_Otter, Tomas, Inimyo и Андрей Авдеев-Режиссер: Хоаким Дос Сантос / Joaquim Dos Santos, Ки Хьюн Рю / Ki Hyun Ryu, Йен Грэхэм / Ian Graham, ...
В главных ролях: Джанет Вэрни, Ди Брэдли Бейкер, Джефф Беннетт, П.Дж. Бирн, Дэвид Фаустино, Дж.К. Симмонс, Сейшелл Гэбриел, Логан Уэллс, Минди Стерлинг, Кирнан Шипка, ...-Описание:
Добро пожаловать в Республиканский город! Город надежд, мечтаний и Зарослей Духов! Здесь найдётся что-нибудь интересное для каждого! Посетите Остров Храма Воздуха, центр для всех магов воздуха, путешествующих по миру и помогающих людям. Или прогуляйтесь по красивейшему Парку Аватару Корры, названным в честь сами знаете кого! Мы очень скучали по ней все прошедшие три года и ждём-не дождемся ее прибытия домой! Поправляйся скорее, Корра! И, конечно же, вам захочется увидеть нашу главную достопримечательность - Заросли Духов! Здесь люди и духи живут вместе в полной гармонии! Например, как этот старый торговец и его новые друзья! И конечно же, этот город абсолютно безопасен! Приезжайте, чтобы стать частью всего происходящего в республиканском городе!-Сезон: 4
Серии: 13 из 13 серий
Продолжительность: ~ 00:22:00 мин серия-Качество видео: WEB-DLRip
Формат: AVI
Видеокодек: XviD
Аудиокодек: MP3
Видео: MPEG-4 Visual at 1493 Кбит/сек: 720 x 400 (1.800) at 23.976 fps, 0.22 bit/pixel
Аудио Eng: MPEG Audio at 192 Кбит/сек: 2 канала, 44,1 КГц |Flux-Team|
Аудио Eng: MPEG Audio at 192 Кбит/сек: 2 канала, 44,1 КГц |Original|
Cубтитры: Отсутствуют
- -

Список серий:

Эпизод 01. После стольких лет
Эпизод 02. Одинокая Корра
Эпизод 03. Коронация
Эпизод 04. Призвание
Эпизод 05. Враг у ворот
Эпизод 06. Битва за Сао Фу
Эпизод 07. Воссоединение
Эпизод 08. Воспоминания
Эпизод 09. По ту сторону зарослей
Эпизод 10. Операция Бейфонг
Эпизод 11. Гамбит Кувиры
Эпизод 12. Колос
Эпизод 13. Последняя битва
-

MediaInfo:

Общее
Полное имя : E:\_Сериалы\_Сериалы\Аватар Легенда о Корре\The Legend of Korra. Book 4. Rus\The.Legend.of.Korra.s04e01.rus.Flux-Team.avi
Формат : AVI
Формат/Информация : Audio Video Interleave
Размер файла : 309 Мбайт
Продолжительность : 22 м.
Общий поток : 1892 Кбит/сек
Программа кодирования : VirtualDubMod 1.5.10.3 (build 2550/release)
Библиотека кодирования : VirtualDubMod build 2550/release
Видео
Идентификатор : 0
Формат : MPEG-4 Visual
Профиль формата : Advanced Simple@L5
Параметр BVOP формата : 2
Параметр QPel формата : Нет
Параметр GMC формата : Без точки перехода
Параметр матрицы формата : Default (MPEG)
Идентификатор кодека : XVID
Идентификатор кодека/Подсказка : XviD
Продолжительность : 22 м.
Битрейт : 1493 Кбит/сек
Ширина : 720 пикселей
Высота : 400 пикселей
Соотношение сторон : 16:9
Частота кадров : 23,976 кадра/сек
Цветовое пространство : YUV
Субдискретизация насыщенности : 4:2:0
Битовая глубина : 8 бит
Тип развёртки : Прогрессивная
Метод сжатия : С потерями
Бит/(Пиксели*Кадры) : 0.216
Размер потока : 244 Мбайт (79%)
Библиотека кодирования : XviD 1.2.1 (UTC 2008-12-04)
Аудио #1
Идентификатор : 1
Формат : MPEG Audio
Версия формата : Version 1
Профиль формата : Layer 3
Идентификатор кодека : 55
Идентификатор кодека/Подсказка : MP3
Продолжительность : 22 м.
Вид битрейта : Постоянный
Битрейт : 192 Кбит/сек
Каналы : 2 канала
Частота : 44,1 КГц
Метод сжатия : С потерями
Размер потока : 31,4 Мбайт (10%)
Выравнивание : Разделение по промежуткам
Продолжительность промежутка : 42 мс. (1,00 видеокадр)
Время предзагрузки промежутка : 500 мс.
Аудио #2
Идентификатор : 2
Формат : MPEG Audio
Версия формата : Version 1
Профиль формата : Layer 3
Идентификатор кодека : 55
Идентификатор кодека/Подсказка : MP3
Продолжительность : 22 м.
Вид битрейта : Постоянный
Битрейт : 192 Кбит/сек
Каналы : 2 канала
Частота : 44,1 КГц
Метод сжатия : С потерями
Размер потока : 31,4 Мбайт (10%)
Выравнивание : Разделение по промежуткам
Продолжительность промежутка : 42 мс. (1,00 видеокадр)
Время предзагрузки промежутка : 500 мс.
-

Скриншот c названием фильма

 
-Скриншоты:
       
-

Еще

       
-

Как закачать отдельный файл

1. Открыть торрент
2. Снять галки с тех файлов торрента, которые мы не хотим закачивать. Оставляем только на нужных нам файлах (файле).
3. Нажать О.К.
В клиенте utorrent
Инструкция
1) Открыть торрент

2) Снять галки с тех файлов торрента, которые мы не хотим закачивать:
* либо вручную, снимая с каждого файла галку( скрин №1)
* либо, нажав кнопку "Снять метки (Select None)", сняв сразу со всех файлов(скрин №2)
№1

№2

Оставляем только на нужных нам файлах (файле).

3)Нажать О.К
-Добавлена тринадцатая, заключительная, серия четвертого сезона.

_________________


Вне форума [Профиль] [ЛС]
Показать сообщения:    
Ответить на тему

Текущее время: Сегодня 06:45

Часовой пояс: GMT + 3



Вы не можете начинать темы
Вы не можете отвечать на сообщения
Вы не можете редактировать свои сообщения
Вы не можете удалять свои сообщения
Вы не можете голосовать в опросах
Вы не можете прикреплять файлы к сообщениям
Вы не можете скачивать файлы