Сегодня идет свободное скачивание без начисления Download

Нация Z / Z Nation (Сезон 1 / Полный / Серии: 13 из 13) (Джон Хайамс / John Hyams, ...) [2014г., фантастика, боевик, драма, ... WEB-DLRip] MVO (BaibaKo) + Original (Eng)

Ответить на тему
 
Автор
Сообщение

Clavik ®

Пол:

Стаж: 4 года 7 месяцев

Сообщений: 2413

Откуда: Украина

Торрент-статистика

Пост 20-Дек-2014 00:09

[Цитировать]

Нация Z / Z Nation
Надежда умирает последней.
- Русское название: Нация Z
Оригинальное название: Z Nation
Страна: США
Год выпуска: 2014
Жанр: фантастика, боевик, драма-Релиз:
Перевод: Профессиональный (многоголосый, закадровый)
Оригинальный аудиопоток: английский-Над релизом работали:
Перевод: Наталья Черненко
Озвучка: Ольга Мотрич, Anna_Smile, Олекса Мельник и Алексей Кузнецов
Монтаж: Павел Дежин
Обложка: Антон Максимов-Премьера (мир): 12 сентября 2014-Режиссер: Джон Хайамс / John Hyams, Тим Эндрю / Tim Andrew, Луис Прието / Luis Prieto, ..., ...
В главных ролях: Гарольд Перрино, Том Эверетт Скотт, Ди Джей Куаллс, Майкл Уэлш, Келлита Смит, Анастасия Баранова, Расселл Ходжкинсон, Кит Аллан, ...-Описание фильма:
Спустя три года после того, как вирус зомби распространился и выпотрошил всю страну, команда героев должна перевезти необычный груз. Это - единственный выживший после непосредственного воздействия чумы. В Калифорнии последняя функционирующая вирусная лаборатория ждет его крови. Хотя антитела, которые он несет, являются последней надеждой мира получить вакцину, он скрывает мрачную тайну, которая угрожает им всем. Выживание человечества под угрозой, когда разношерстная группа предпринимает путешествие длиной в пять тысяч километров по опустошенной, постапокалиптической Америке.-Сезон: 1
Серии: 13 из 13 серий
Продолжительность: ~ 00:43:00 мин серия-Качество видео: WEB-DLRip
Формат: AVI
Видеокодек: XviD
Аудиокодек: Mp3
Видео: MPEG-4 Visual at 1508 Кбит/сек: 720 x 400 (1.800) at 23.976 fps, 0.22 Бит/Пиксели
Аудио Rus: MPEG Audio at 192 Кбит/сек, 2 канала, 48,0 КГц |BaibaKo|
Аудио Eng: MPEG Audio at 192 Кбит/сек: 2 канала, 48,0 КГц |Original|
- -

Список серий:

  • Щенки и котята (Puppies and Kittens)
  • Грёбаные зомби (Fracking Zombies)
  • Пир в Филадельфии (Philly Feast)
  • Гангста зомби мочилово (Full Metal Zombie)
  • Зомби милый дом (Home Sweet Zombie)
  • Воскрешение Z (Resurrection Z)
  • Добро пожаловать в улетный бар (Welcome to the FU-bar)
  • Зунами (Zunami)
  • Сдохни, зомби, сдохни уже! (Die Zombie Die Again)
  • В шаге от ядерного взрыва (Going Nuclear)
  • Сёстры милосердия (Sisters of Mercy)
  • Закон Мёрфи (Murphys Law)
  • Доктор мертвяков (Doctor of the Dead)
-

MediaInfo:

Общее
Полное имя : E:\_Сериалы\_Сериалы\Нация Z\Z.Nation.s01.BaibaKo\Z.Nation.s01e01.WEB-DLRip.XviD.Rus.Eng.BaibaKo.tv.avi
Формат : AVI
Формат/Информация : Audio Video Interleave
Размер файла : 587 Мбайт
Продолжительность : 43 м.
Общий поток : 1906 Кбит/сек
Программа кодирования : VirtualDubMod 1.5.10.2 (build 2540/release)
Библиотека кодирования : VirtualDubMod build 2540/release
Видео
Идентификатор : 0
Формат : MPEG-4 Visual
Профиль формата : Advanced Simple@L5
Параметр BVOP формата : 2
Параметр QPel формата : Нет
Параметр GMC формата : Без точки перехода
Параметр матрицы формата : Default (H.263)
Идентификатор кодека : XVID
Идентификатор кодека/Подсказка : XviD
Продолжительность : 43 м.
Битрейт : 1508 Кбит/сек
Ширина : 720 пикселей
Высота : 400 пикселей
Соотношение сторон : 16:9
Частота кадров : 23,976 кадра/сек
Цветовое пространство : YUV
Субдискретизация насыщенности : 4:2:0
Битовая глубина : 8 бит
Тип развёртки : Прогрессивная
Метод сжатия : С потерями
Бит/(Пиксели*Кадры) : 0.218
Размер потока : 464 Мбайт (79%)
Библиотека кодирования : XviD 1.2.1 (UTC 2008-12-04)
Аудио #1
Идентификатор : 1
Формат : MPEG Audio
Версия формата : Version 1
Профиль формата : Layer 3
Режим : Joint stereo
Расширение режима : MS Stereo
Идентификатор кодека : 55
Идентификатор кодека/Подсказка : MP3
Продолжительность : 43 м.
Вид битрейта : Постоянный
Битрейт : 192 Кбит/сек
Каналы : 2 канала
Частота : 48,0 КГц
Метод сжатия : С потерями
Размер потока : 59,1 Мбайт (10%)
Выравнивание : Соединение по промежуткам
Продолжительность промежутка : 42 мс. (1,00 видеокадр)
Время предзагрузки промежутка : 504 мс.
Библиотека кодирования : LAME3.99.5
Аудио #2
Идентификатор : 2
Формат : MPEG Audio
Версия формата : Version 1
Профиль формата : Layer 3
Режим : Joint stereo
Расширение режима : MS Stereo
Идентификатор кодека : 55
Идентификатор кодека/Подсказка : MP3
Продолжительность : 43 м.
Вид битрейта : Постоянный
Битрейт : 192 Кбит/сек
Каналы : 2 канала
Частота : 48,0 КГц
Метод сжатия : С потерями
Размер потока : 59,1 Мбайт (10%)
Выравнивание : Соединение по промежуткам
Продолжительность промежутка : 42 мс. (1,00 видеокадр)
Время предзагрузки промежутка : 504 мс.
-

Скриншот c названием фильма

 
-Скриншоты:
       
-

Еще

       
-

Как закачать отдельный файл

1. Открыть торрент
2. Снять галки с тех файлов торрента, которые мы не хотим закачивать. Оставляем только на нужных нам файлах (файле).
3. Нажать О.К.
В клиенте utorrent
Инструкция
1) Открыть торрент

2) Снять галки с тех файлов торрента, которые мы не хотим закачивать:
* либо вручную, снимая с каждого файла галку( скрин №1)
* либо, нажав кнопку "Снять метки (Select None)", сняв сразу со всех файлов(скрин №2)
№1

№2

Оставляем только на нужных нам файлах (файле).

3)Нажать О.К
-Добавлена тринадцатая, заключительная, серия первого сезона

_________________


Вне форума [Профиль] [ЛС]
Показать сообщения:    
Ответить на тему

Текущее время: Сегодня 01:17

Часовой пояс: GMT + 3



Вы не можете начинать темы
Вы не можете отвечать на сообщения
Вы не можете редактировать свои сообщения
Вы не можете удалять свои сообщения
Вы не можете голосовать в опросах
Вы не можете прикреплять файлы к сообщениям
Вы не можете скачивать файлы