Сегодня идет свободное скачивание без начисления Download

Южный Парк / South Park / Сезон 18 / Полный / Серий: 10 из 10 (Трей Паркер / Trey Parker, ...) [2014, мультфильм, комедия, ..., HDTV 720р] VO (Nice-Media) + Original (Eng) + Sub (Rus, Eng)

Ответить на тему
 
Автор
Сообщение

Clavik ®

Пол:

Стаж: 4 года 1 месяц

Сообщений: 2445

Откуда: Украина

Торрент-статистика

Пост 20-Дек-2014 00:06

[Цитировать]

Южный Парк / South Park
«Four boys. One f**ked up town»
- Русское название: Южный Парк
Оригинальное название: South Park
Страна: США
Год выпуска: 2014
Жанр: мультфильм, комедия, ...-Премьера (мир): 13 августа 1997, ...
Релиз на DVD: 31 марта 2014, «Новый Диск», ...-Релиз: |Nice-Media|
Перевод: Одноголосый закадровый, любительский
Оригинальный аудиопоток: английский-Озвучка: L0cDoG
Перевод: Doctor Joker-Режиссер: Трей Паркер / Trey Parker, Мэтт Стоун / Matt Stone, Брайан Граден / Brian Graden , ...
Актеры: Трей Паркер, Мэтт Стоун, Мона Маршалл, Айзек Хейз, Эйприл Стюарт, Элиза Шнайдер, Эдриан Бирд, Мэри Кэй Бергман, Дженнифер Хауэлл, Кайл Маккаллок, ...-Описание фильма:
Основу сюжета составляют приключения четырёх мальчиков и их друзей, живущих в маленьком городке Саус-Парк, штат Колорадо. Сериал высмеивает недостатки американской культуры и текущие мировые события, а также подвергает критике множество глубоких убеждений и табу посредством пародии и чёрного юмора. «Южный парк» выходит поздно вечером и позиционируется как мультфильм для взрослых.-Сезон: 18
Серии: 10 из 10 серий
Продолжительность: ~ 00:22:00 мин серия-Качество видео: HDTV 720р
Контейнер: MKV
Видеокодек: AVC (High@L3.1)
Аудиокодек: AC3
Видео: AVC at 1418 Кбит/сек: 1280 x 720 (1.778) at 23.976 fps
Аудио Rus: AC-3 at 384 Кбит/сек: 6 каналов, 48,0 КГц |Кубик в Кубе|
Аудио Eng: AC-3 at 384 Кбит/сек: 6 каналов, 48,0 КГц |Original|
Cубтитры: Русские (Doctor Joker), английские
Формат субтитров: softsub (SRT)
- -

Список серий:

  • Перейти на самофинансирование (Go Fund Yourself)
  • Безглютеновая Эбола (Gluten Free Ebola)
  • Циска (The Cissy)
  • Таксинвалид (Handicar)
  • Волшебный Куст (The Magic Bush)
  • Условно-бесплатное — не бесплатно (Freemium Isn't Free)
  • Наказанный Виртуальной Реальностью (Grounded Vindaloop)
  • Петушиная Магия (Cock Magic)
  • Пересказ (REHASH)
  • Счастливые голограммы (Happy Holograms)
-

MediaInfo:

Общее
Уникальный идентификатор : 223354526030073123162007047351895159996 (0xA80884596DBF0CF5B71AE642F77974BC)
Полное имя : E:\_Сериалы\_МультСериалы\Южный Парк\South.Park.S18.HDTV.720p.rus.eng.Nice-Media\South.Park.S18E01.HDTV.720p.rus.eng.Nice-Media.ru.mkv
Формат : Matroska
Версия формата : Version 4 / Version 2
Размер файла : 356 Мбайт
Продолжительность : 22 м.
Общий поток : 2230 Кбит/сек
Дата кодирования : UTC 2014-09-25 17:38:12
Программа кодирования : mkvmerge v7.0.0 ('Where We Going') 64bit built on Jun 9 2014 15:16:27
Библиотека кодирования : libebml v1.3.0 + libmatroska v1.4.1
DURATION : 00:22:17.504000000
NUMBER_OF_FRAMES : 41797
NUMBER_OF_BYTES : 64200192
_STATISTICS_WRITING_APP : mkvmerge v7.0.0 ('Where We Going') 64bit built on Jun 9 2014 15:16:27
_STATISTICS_WRITING_DATE_UTC : 2014-09-25 17:38:12
_STATISTICS_TAGS : BPS DURATION NUMBER_OF_FRAMES NUMBER_OF_BYTES
Видео
Идентификатор : 1
Формат : AVC
Формат/Информация : Advanced Video Codec
Профиль формата : Baseline@L3.1
Параметр CABAC формата : Нет
Параметр ReFrames формата : 5 кадров
Параметр GOP формата : M=1, N=24
Идентификатор кодека : V_MPEG4/ISO/AVC
Продолжительность : 22 м.
Битрейт : 1418 Кбит/сек
Ширина : 1280 пикселей
Высота : 720 пикселей
Соотношение сторон : 16:9
Режим частоты кадров : Постоянный
Частота кадров : 23,976 кадра/сек
Стандарт вещания : NTSC
Цветовое пространство : YUV
Субдискретизация насыщенности : 4:2:0
Битовая глубина : 8 бит
Тип развёртки : Прогрессивная
Бит/(Пиксели*Кадры) : 0.064
Размер потока : 226 Мбайт (64%)
Язык : English
Default : Да
Forced : Нет
Аудио #1
Идентификатор : 2
Формат : AC-3
Формат/Информация : Audio Coding 3
Расширение режима : CM (complete main)
Параметр Endianness формата : Big
Идентификатор кодека : A_AC3
Продолжительность : 22 м.
Вид битрейта : Постоянный
Битрейт : 384 Кбит/сек
Каналы : 6 каналов
Расположение каналов : Front: L C R, Side: L R, LFE
Частота : 48,0 КГц
Битовая глубина : 16 бит
Метод сжатия : С потерями
Размер потока : 61,2 Мбайт (17%)
Заголовок : RUS (Nice-Media)
Язык : Russian
Default : Да
Forced : Нет
Аудио #2
Идентификатор : 3
Формат : AC-3
Формат/Информация : Audio Coding 3
Расширение режима : CM (complete main)
Параметр Endianness формата : Big
Идентификатор кодека : A_AC3
Продолжительность : 22 м.
Вид битрейта : Постоянный
Битрейт : 384 Кбит/сек
Каналы : 6 каналов
Расположение каналов : Front: L C R, Side: L R, LFE
Частота : 48,0 КГц
Битовая глубина : 16 бит
Метод сжатия : С потерями
Размер потока : 61,2 Мбайт (17%)
Заголовок : ENG
Язык : English
Default : Нет
Forced : Нет
-

Скриншот c названием фильма

 
-Скриншоты:
       
-

Еще

         
-

Как закачать отдельный файл

1. Открыть торрент
2. Снять галки с тех файлов торрента, которые мы не хотим закачивать. Оставляем только на нужных нам файлах (файле).
3. Нажать О.К.
В клиенте utorrent
Инструкция
1) Открыть торрент

2) Снять галки с тех файлов торрента, которые мы не хотим закачивать:
* либо вручную, снимая с каждого файла галку( скрин №1)
* либо, нажав кнопку "Снять метки (Select None)", сняв сразу со всех файлов(скрин №2)
№1

№2

Оставляем только на нужных нам файлах (файле).

3)Нажать О.К
-Добавлена десятая, заключительная, серия восемнадцатого сезона
Девятнадцатый сезон выйдет в сентябре 2015

_________________


Вне форума [Профиль] [ЛС]
Похожие темы
Форум Тема Автор Торрент Отв. Посл. сообщение
./templates/default/images/folder_dl.gif Медицина и Здоровье Southern Living - The Southern Baker: Sweet and Savory Treats to Share with Friends and Family / Южный пекарь: сладкие и пикантные угощения для друзей и родных [2015, EPUB/PDF, ENG] Omen
1 | 0

0 | 1705

0

2016-12-26 01:00
Omen Последнее
Показать сообщения:    
Ответить на тему

Текущее время: Сегодня 22:51

Часовой пояс: GMT + 3



Вы не можете начинать темы
Вы не можете отвечать на сообщения
Вы не можете редактировать свои сообщения
Вы не можете удалять свои сообщения
Вы не можете голосовать в опросах
Вы не можете прикреплять файлы к сообщениям
Вы не можете скачивать файлы