Сегодня идет свободное скачивание без начисления Download

Бриклберри / Brickleberry / Сезон 3 / Полный / Серий 10 из 10) (Захари Монкриф / Zac Moncrief ...) [2014г., мультфильм, комедия, ..., WEB-DLRip 1080р] DVO (NewStudio) (18+)

Ответить на тему
 
Автор
Сообщение

Clavik ®

Пол:

Стаж: 3 года 11 месяцев

Сообщений: 2485

Откуда: Украина

Торрент-статистика

Пост 20-Дек-2014 00:01

[Цитировать]

Бриклберри / Brickleberry- Русское название: Бриклберри
Оригинальное название: Brickleberry
Страна: США
Год выпуска: 2014
Жанр: мультфильм, комедия-Релиз: |NewStudio|
Перевод: Профессиональный двухголосый закадровый
Озвучка: Константин Погодаев, Анна Тух
Автор перевода: Юрий Башенкер
Редактор: Руслан Графт-Премьера (мир): 25 сентября 2012, ...
Премьера (РФ): 18 декабря 2013-Режиссер: Захари Монкриф / Zac Moncrief, Род Амадор / Rod Amador, Брайан ЛоСкьяво / Brian LoSchiavo ...
В главных ролях: Дэниэл Тош, Роджер Блэк, Дэвид Херман, Том Кенни, Джерри Майнор, Вако О’Гуин, Кэйтлин Олсон, Наташа Леггеро, Грэй ДеЛисл, Тара Стронг ...-Описание фильма:
Мультсериал о группе лесников-раздолбаев, столкнувшихся с закрытием национального парка. На помощь рейнджерам приходит новенький, чья цель — преобразить и сохранить заповедник.-Сезон: 3
Серии: 10 из 10 серий
Продолжительность: ~ 00:21:00 мин серия-Качество видео: WEB-DLRip 1080р
Формат: MKV
Видеокодек: AVC (High@L4.0)
Аудиокодек: AC-3
Видео: AVC at 4966 Кбит/сек: 1920 x 1080 (1.778) at 23.976 fps
Аудио Rus: AC-3 at 384 Кбит/сек: 6 каналов, 48,0 КГц |NewStudio|
Аудио Eng: AC-3 at 384 Кбит/сек: 6 каналов, 48,0 КГц |Original|
-
-

Список серий:

  • Крик Обамы (Obamascare)
  • Добро пожаловать в наш клуб (In Da Club)
  • Мисс "Национальный Парк" (Miss National Park)
  • Брат и мой отец (That Brother's My Father)
  • Покажи им ковбой (Write 'Em Cowboy)
  • Старые раны (Old Wounds)
  • Папенькин ребёнок (Baby Daddy)
  • Тевье бесстрашный пилот (teve the Fearless Pilot)
  • Высокие ставки (High Stakes)
  • Угроза по имени Эмбер (Amber Alert)
-

MediaInfo:

Код:
Общее
Уникальный идентификатор                 : 239968119701812379653167668945576945247 (0xB4882DC21D4F6ED89B0F785CC9EE665F)
Полное имя                               : E:\_Сериалы\_МультСериалы\Бриклберри\Brickleberry.s03.NewStudio\Brickleberry.s03e01.webdl.1080p.NewStudio.TV.mkv
Формат                                   : Matroska
Версия формата                           : Version 4 / Version 2
Размер файла                             : 905 Мбайт
Продолжительность                        : 21 м.
Общий поток                              : 5850 Кбит/сек
Дата кодирования                         : UTC 2014-09-18 11:49:11
Программа кодирования                    : mkvmerge v7.2.0 ('On Every Street') 64bit built on Sep 13 2014 15:52:10
Библиотека кодирования                   : libebml v1.3.0 + libmatroska v1.4.1
DURATION                                 : 00:21:38.016000000
NUMBER_OF_FRAMES                         : 40563
NUMBER_OF_BYTES                          : 62304768
_STATISTICS_WRITING_APP                  : mkvmerge v7.2.0 ('On Every Street') 64bit built on Sep 13 2014 15:52:10
_STATISTICS_WRITING_DATE_UTC             : 2014-09-18 11:49:11
_STATISTICS_TAGS                         : BPS DURATION NUMBER_OF_FRAMES NUMBER_OF_BYTES
Видео
Идентификатор                            : 1
Формат                                   : AVC
Формат/Информация                        : Advanced Video Codec
Профиль формата                          : High@L4.0
Параметр CABAC формата                   : Да
Параметр ReFrames формата                : 4 кадра
Идентификатор кодека                     : V_MPEG4/ISO/AVC
Продолжительность                        : 21 м.
Битрейт                                  : 4966 Кбит/сек
Ширина                                   : 1920 пикселей
Высота                                   : 1080 пикселей
Соотношение сторон                       : 16:9
Режим частоты кадров                     : Постоянный
Частота кадров                           : 23,976 кадра/сек
Цветовое пространство                    : YUV
Субдискретизация насыщенности            : 4:2:0
Битовая глубина                          : 8 бит
Тип развёртки                            : Прогрессивная
Бит/(Пиксели*Кадры)                      : 0.100
Размер потока                            : 768 Мбайт (85%)
Язык                                     : English
Default                                  : Да
Forced                                   : Нет
Основные цвета                           : BT.709
Характеристики трансфера                 : BT.709
Коэффициенты матрицы                     : BT.709
Аудио #1
Идентификатор                            : 2
Формат                                   : AC-3
Формат/Информация                        : Audio Coding 3
Расширение режима                        : CM (complete main)
Параметр Endianness формата              : Big
Идентификатор кодека                     : A_AC3
Продолжительность                        : 21 м.
Вид битрейта                             : Постоянный
Битрейт                                  : 384 Кбит/сек
Каналы                                   : 6 каналов
Расположение каналов                     : Front: L C R, Side: L R, LFE
Частота                                  : 48,0 КГц
Битовая глубина                          : 16 бит
Метод сжатия                             : С потерями
Размер потока                            : 59,4 Мбайт (7%)
Язык                                     : Russian
Default                                  : Да
Forced                                   : Нет
Аудио #2
Идентификатор                            : 3
Формат                                   : AC-3
Формат/Информация                        : Audio Coding 3
Расширение режима                        : CM (complete main)
Параметр Endianness формата              : Big
Идентификатор кодека                     : A_AC3
Продолжительность                        : 21 м.
Вид битрейта                             : Постоянный
Битрейт                                  : 384 Кбит/сек
Каналы                                   : 6 каналов
Расположение каналов                     : Front: L C R, Side: L R, LFE
Частота                                  : 48,0 КГц
Битовая глубина                          : 16 бит
Метод сжатия                             : С потерями
Размер потока                            : 59,4 Мбайт (7%)
Язык                                     : English
Default                                  : Нет
Forced                                   : Нет
Текст
Идентификатор                            : 4
Формат                                   : SSA
Идентификатор кодека                     : S_TEXT/SSA
Идентификатор кодека/Информация          : Sub Station Alpha
Метод сжатия                             : Без потерь
Язык                                     : Russian
Default                                  : Да
Forced                                   : Да
-

Скриншот c названием фильма

 
-Скриншоты:
       
-

Еще

     -      
-

Внимание! Раздача ведётся путём добавления новых серий!

Внимание! Раздача ведётся путём добавления новых серий; при каждом добавлении создётся новый торрент. Чтобы начать докачку новой серии, пользователям необходимо сделать следующее:
(1) остановить скачивание,
(2) удалить старый торрент у себя из клиента (старые серии удалять не надо),
(3) скачать новый торрент и запустить его у себя в клиенте вместо старого, при этом указать клиенту путь в старую папку куда и должно происходить скачивание новых серий.
Ваш клиент при этом должен произвести хеширование (проверку) старой папки (если не производит сам - помогите ему сделать это), и будет докачивать только те серии которых у вас ещё нет. Старые серии при этом не удаляются, а продолжают раздаваться!
Eсли вы уже удалили старые серии, то предотвратить повторную закачку старых серий можно, отжав галочку в соответсвующих местах при запуске нового торрента.
-Добавлена десятая, заключительная, серия третьего сезона

_________________


Вне форума [Профиль] [ЛС]
Показать сообщения:    
Ответить на тему

Текущее время: Сегодня 17:37

Часовой пояс: GMT + 3



Вы не можете начинать темы
Вы не можете отвечать на сообщения
Вы не можете редактировать свои сообщения
Вы не можете удалять свои сообщения
Вы не можете голосовать в опросах
Вы не можете прикреплять файлы к сообщениям
Вы не можете скачивать файлы