Сегодня идет свободное скачивание без начисления Download

Звездные Войны: Войны Клонов / Star Wars: The Clone Wars (Сезон 6 / полный / серий: 13 из 13) (Дэйв Филони / Dave Filoni ...) [2014 г., мультфильм, фантастика, ..., WEB-DLRip] MVO (LostFilm)

Ответить на тему
 
Автор
Сообщение

Clavik ®

Пол:

Стаж: 4 года 3 месяца

Сообщений: 2445

Откуда: Украина

Торрент-статистика

Пост 19-Дек-2014 23:48

[Цитировать]

Звездные Войны: Войны Клонов / Star Wars: The Clone Wars
«Let freedom ride»
- Русское название: Звездные Войны: Войны Клонов
Оригинальное название: Star Wars: The Clone Wars
Страна: США
Год выпуска: 2012
Жанр: мультфильм, фантастика, фэнтези, боевик, драма, приключения, ...-Премьера (мир): 3 октября 2008, ...
Релиз на DVD: 30 ноября 2010, «Юниверсал Пикчерс Рус», ...-Релиз: Студия LostFilm
Перевод: Профессиональный (многоголосый, закадровый)-Режиссер: Дэйв Филони / Dave Filoni, Стюарт Ли / Steward Lee, Кайл Данливи / Kyle Dunlevy , ...
В главных ролях: Том Кэйн, Ди Брэдли Бейкер, Мэтт Лантер, Джеймс Арнольд Тейлор, Эшли Экштейн, Кори Бертон, Мэттью Вуд, Терренс «Т.К.» Карсон, Катрин Табер, Йен Эберкромби, ...
Роли дублировали: Борис Смолкин, Сергей Паршин, Андрей Зайцев, Евгений Иванов, Борис Хасанов ...-Описание фильма:
Великая Армия Республики, ведомая Йодой, Мейсом Винду, Оби-Ваном Кеноби и другими рыцарями-джедаями, сражается против Новой Армии Дроидов сепаратистов.-Сезон: 6
Серии: 13 из 13 серий
Продолжительность: ~ 00:22:00 мин серия-Качество видео: WEB-DLRip
Формат: AVI
Видеокодек: XviD
Аудиокодек: Mp3
Видео: MPEG-4 Visual at 1894 Кбит/сек: 720 x 398 (1.809) at 23.976 fps, 0.28 Бит/Пиксели
Аудио Rus: MPEG Audio at 192 Кбит/сек: 2 канала, 48,0 КГц |LostFilm|
- -

Список серий:

  • Неизвестность (The Unknown)
  • Заговор (Conspiracy)
  • Беглец (Fugitive)
  • Приказы (Orders)
  • Старый друг (An Old Friend)
  • Успех Кловиса (The Rise of Clovis)
  • Душевный кризис (Crisis at the Heart)
  • Исчезнувшие. Часть 1 (The Disappeared: Part 1)
  • Исчезнувшие. Часть 2 (The Disappeared: Part 2)
  • Пропавший без вести (The Lost One)
  • Голоса (Voices)
  • Судьба (Destiny)
  • Жертва (Sacrifice)
-

MediaInfo:

Код:
Общее
Полное имя                               : E:\_Сериалы\_NeW_\Новая папка\Star.Wars.The.Clone.Wars.S06E01.rus.LostFilm.TV.avi
Формат                                   : AVI
Формат/Информация                        : Audio Video Interleave
Размер файла                             : 339 Мбайт
Продолжительность                        : 22 м.
Режим общего битрейта                    : Переменный
Общий поток                              : 2093 Кбит/сек
Программа кодирования                    : Nandub v1.0rc2
Библиотека кодирования                   : Nandub build 1853/release
Видео
Идентификатор                            : 0
Формат                                   : MPEG-4 Visual
Профиль формата                          : Advanced Simple@L5
Параметр BVOP формата                    : 2
Параметр QPel формата                    : Нет
Параметр GMC формата                     : Без точки перехода
Параметр матрицы формата                 : Default (H.263)
Идентификатор кодека                     : XVID
Идентификатор кодека/Подсказка           : XviD
Продолжительность                        : 22 м.
Битрейт                                  : 1894 Кбит/сек
Ширина                                   : 720 пикселей
Высота                                   : 398 пикселей
Соотношение сторон                       : 16:9
Частота кадров                           : 23,976 кадра/сек
Цветовое пространство                    : YUV
Субдискретизация насыщенности            : 4:2:0
Битовая глубина                          : 8 бит
Тип развёртки                            : Прогрессивная
Метод сжатия                             : С потерями
Бит/(Пиксели*Кадры)                      : 0.276
Размер потока                            : 307 Мбайт (90%)
Библиотека кодирования                   : XviD 64
Аудио
Идентификатор                            : 1
Формат                                   : MPEG Audio
Версия формата                           : Version 1
Профиль формата                          : Layer 3
Режим                                    : Joint stereo
Идентификатор кодека                     : 55
Идентификатор кодека/Подсказка           : MP3
Продолжительность                        : 22 м.
Вид битрейта                             : Переменный
Битрейт                                  : 192 Кбит/сек
Каналы                                   : 2 канала
Частота                                  : 48,0 КГц
Метод сжатия                             : С потерями
Размер потока                            : 30,2 Мбайт (9%)
Выравнивание                             : Соединение по промежуткам
Продолжительность промежутка             : 24  мс. (0,58 видеокадр)
Время предзагрузки промежутка            : 539  мс.
Библиотека кодирования                   : LAME3.97b
Настройки программы                      : -m j -V 4 -q 3 -lowpass 18.6 --abr 192
-Скриншоты:
       
-Добавлена тринадцатая, заключительная, серия шестого сезона

_________________


Вне форума [Профиль] [ЛС]
Похожие темы
Форум Тема Автор Торрент Отв. Посл. сообщение
./templates/default/images/folder_dl.gif Для самых маленьких Серия обучающих игр Лунтик [3+] (P) (2006-2011) (1С - с 1-12 игры) (ALAWAR - 13-14 игры -Лунтик: Пропавшие краски и Лунтик: В поисках звезды) (RUS) [L] Aikivas
1 | 0

2 | 11218

43

2014-10-10 11:48
Aikivas Последнее
./templates/default/images/folder_dl.gif Архив Книжная серия | Звезды новой фантастики [19 книг. Обновляемая] (2014-2015) [FB2] sashau
1 | 0

0 | 1576

21

2014-10-18 17:03
sashau Последнее
./templates/default/images/folder_dl.gif Фильмы 2011-2016 Изгой-один: Звёздные войны. Истории / Rogue One: A Star Wars Story (Гарет Эдвардс) [2016 г., фантастика, боевик, приключения, HDRip-AVC] DUB | iTunes Theseus
1 | 0

0 | 8934

11

2017-03-24 14:53
Theseus Последнее
./templates/default/images/folder_dl.gif Разножанровые коллекции книг и библиотеки Книжная серия | Звёзды мирового детектива [129 книг] (2012-2017) [FB2] }{@R0N
2 | 0

0 | 1575

6

2017-12-05 15:59
}{@R0N Последнее
./templates/default/images/folder_dl.gif Новинки (CamRip|TS) Звёздные войны: Последние джедаи / Star Wars: The Last Jedi (Райан Джонсон) [2017, фантастика, фэнтези, боевик, приключения, TS (Proper)] DUB Theseus
1 | 0

0 | 1713

3

2017-12-18 18:38
Theseus Последнее
./templates/default/images/folder_dl.gif Новинки (CamRip|TS) Звёздные войны: Последние джедаи / Star Wars: The Last Jedi (Райан Джонсон) [2017, фантастика, фэнтези, боевик, приключения, Telecine 720p] Theseus
1 | 1

0 | 326

4

2018-01-14 22:14
Theseus Последнее
./templates/default/images/folder_dl.gif Новинки (CamRip|TS) Звёздные войны: Последние джедаи / Star Wars: The Last Jedi (Райан Джонсон) [2017, фантастика, фэнтези, боевик, приключения, Telecine] Theseus
1 | 0

0 | 395

4

2018-01-14 22:18
Theseus Последнее
Показать сообщения:    
Ответить на тему

Текущее время: Сегодня 20:15

Часовой пояс: GMT + 3



Вы не можете начинать темы
Вы не можете отвечать на сообщения
Вы не можете редактировать свои сообщения
Вы не можете удалять свои сообщения
Вы не можете голосовать в опросах
Вы не можете прикреплять файлы к сообщениям
Вы не можете скачивать файлы