Сегодня идет свободное скачивание без начисления Download

Под куполом / Under the Dome / Сезон: 2 / Полный / Серии: 13 из 13 (Джек Бендер / Jack Bender, ...) [2014 г., триллер, драма, детектив, ..., WEB-DLRip ] MVO (AlexFilm) + Original (Eng)

Ответить на тему
 
Автор
Сообщение

Clavik ®

Пол:

Стаж: 4 года 11 месяцев

Сообщений: 2329

Откуда: Украина

Торрент-статистика

Пост 19-Дек-2014 23:47

[Цитировать]

Под куполом / Under the Dome
«They are all trapped inside»
- Русское название: Под куполом
Оригинальное название: Under the Dome
Страна: США
Год выпуска: 2013
Жанр: триллер, драма, детектив, ...-Премьера (мир): 24 июня 2013, ...
Премьера (РФ): 14 июля 2013-Озвучка: Студия
Перевод: Многоголосый закадровый, профессиональный
Оригинальный аудиопоток: английский-Автор перевода: Doctor Joker и MartinaG
Роли озвучивали: Евгения Тихонова, Пётр Иващенко (Гланц), Михаил Суслов, Михаил Шорыгин, Владимир Курдов
Монтаж и сведение звука: Михаил Шорыгин-Режиссер: Джек Бендер / Jack Bender, Дэвид Баррет / David Barrett, Питер Лето / Peter Leto, ...
В главных ролях: Майк Фогель, Колин Форд, Аиша Хиндс, Александр Кох, Рашель Лефевр, Натали Мартинез, Дин Норрис, Джолин Парди, Бриттани Робертсон, Николас Стронг, ...-Описание фильма:
Обычным, пригожим осенним днем, город Честерс Миллз, штат Мэн, был внезапно отрезан от остального мира невидимым силовым барьером. Самолеты врезаются в купол и падают, пылая, с небес; садовнику отрезает силовым полем руку; люди, выехавшие в соседний город по делам, не могут вернуться к своим близким; автомобили взрываются от столкновения с куполом. Никто не понимает, что это за барьер, откуда он взялся и исчезнет ли он.
Дейл Барбара, ветеран конфликта в Ираке, а ныне «выбиватель» долгов, обнаруживает себя в команде с несколькими отважными жителями — Джулией Шамвей, журналисткой городской газеты, помощником врача, женщиной и тремя храбрыми детьми. Против них выступает Большой Джим Ренни — местный политический деятель, который для удержания власти не остановится ни перед чем, даже перед убийством, а также его сын со своим личным «скелетом в шкафу». Но главный их противник — сам Купол…-Сезон: 2
Серии: 13 из 13 серий
Продолжительность: ~ 00:43:00 мин серия-Качество видео: WEB-DLRip
Контейнер: AVI
Видео кодек: XviD
Аудио кодек: MP3
Видео: MPEG-4 Visual at 1333 Кбит/сек: 720 x 400 (1.800) at 23.976 fps: 0.19 Бит/Пиксели
Аудио Rus: MPEG Audio at 128 Кбит/сек, 2 канала, 48,0 КГц |AlexFilm|
Аудио Eng: MPEG Audio at 128 Кбит/сек, 2 канала, 48,0 КГц |Original|
Cубтитры: отсутствуют
- -

Список серий:

  • И покатятся головы (Heads Will Roll)
  • Заражение (Infestation)
  • Форс-мажор (Force Majeure)
  • Откровение (Revelation)
  • Примирение (Reconciliation)
  • Во тьме (In the Dark)
  • Возвращение домой (Going Home)
  • Пробуждение (Awakening)
  • Красная дверь (The Red Door)
  • Падение (The Fall)
  • Черный Лед (Black Ice)
  • Поворот (Turn)
  • Теперь Идите (Go Now)
-

MediaInfo:

Код:
Общее
Полное имя                               : E:\_Сериалы\_Сериалы\Под куполом\Under the Dome - Season 2 (AlexFilm) WEB-DLRip\Under.the.Dome.s02e01.WEB-DLRip.Rus.Eng.AlexFilm.avi
Формат                                   : AVI
Формат/Информация                        : Audio Video Interleave
Размер файла                             : 500 Мбайт
Продолжительность                        : 43 м.
Общий поток                              : 1603 Кбит/сек
Название фильма                          : Under the Dome 2x01 Heads Will Roll @ AlexFilm
Программа кодирования                    : VirtualDubMod 1.5.10.2 (build 2542/release)
Видео
Идентификатор                            : 0
Формат                                   : MPEG-4 Visual
Профиль формата                          : Advanced Simple@L5
Параметр BVOP формата                    : 1
Параметр QPel формата                    : Нет
Параметр GMC формата                     : Без точки перехода
Параметр матрицы формата                 : Default (MPEG)
Идентификатор кодека                     : XVID
Идентификатор кодека/Подсказка           : XviD
Продолжительность                        : 43 м.
Битрейт                                  : 1333 Кбит/сек
Ширина                                   : 720 пикселей
Высота                                   : 400 пикселей
Соотношение сторон                       : 16:9
Частота кадров                           : 23,976 кадра/сек
Цветовое пространство                    : YUV
Субдискретизация насыщенности            : 4:2:0
Битовая глубина                          : 8 бит
Тип развёртки                            : Прогрессивная
Метод сжатия                             : С потерями
Бит/(Пиксели*Кадры)                      : 0.193
Размер потока                            : 416 Мбайт (83%)
Библиотека кодирования                   : XviD 1.2.1 (UTC 2008-12-04)
Аудио #1
Идентификатор                            : 1
Формат                                   : MPEG Audio
Версия формата                           : Version 1
Профиль формата                          : Layer 3
Режим                                    : Joint stereo
Расширение режима                        : MS Stereo
Идентификатор кодека                     : 55
Идентификатор кодека/Подсказка           : MP3
Продолжительность                        : 43 м.
Вид битрейта                             : Постоянный
Битрейт                                  : 128 Кбит/сек
Каналы                                   : 2 канала
Частота                                  : 48,0 КГц
Метод сжатия                             : С потерями
Размер потока                            : 40,0 Мбайт (8%)
Выравнивание                             : Соединение по промежуткам
Продолжительность промежутка             : 42  мс. (1,00 видеокадр)
Время предзагрузки промежутка            : 504  мс.
Заголовок                                : Russian (AlexFilm)
Аудио #2
Идентификатор                            : 2
Формат                                   : MPEG Audio
Версия формата                           : Version 1
Профиль формата                          : Layer 3
Режим                                    : Joint stereo
Идентификатор кодека                     : 55
Идентификатор кодека/Подсказка           : MP3
Продолжительность                        : 43 м.
Вид битрейта                             : Постоянный
Битрейт                                  : 128 Кбит/сек
Каналы                                   : 2 канала
Частота                                  : 48,0 КГц
Метод сжатия                             : С потерями
Размер потока                            : 40,0 Мбайт (8%)
Выравнивание                             : Соединение по промежуткам
Продолжительность промежутка             : 42  мс. (1,00 видеокадр)
Время предзагрузки промежутка            : 504  мс.
Заголовок                                : English
-

Скриншот c названием фильма

 
-Скриншоты:
       
-

Еще

       
-

Как закачать отдельный файл

1. Открыть торрент
2. Снять галки с тех файлов торрента, которые мы не хотим закачивать. Оставляем только на нужных нам файлах (файле).
3. Нажать О.К.
В клиенте utorrent
Инструкция
1) Открыть торрент

2) Снять галки с тех файлов торрента, которые мы не хотим закачивать:
* либо вручную, снимая с каждого файла галку( скрин №1)
* либо, нажав кнопку "Снять метки (Select None)", сняв сразу со всех файлов(скрин №2)
№1

№2

Оставляем только на нужных нам файлах (файле).

3)Нажать О.К
-

Дополнительная информация

«Под Куполом» (Under the Dome) — роман Стивена Кинга, который опубликован в США 10 ноября 2009 года. Роман является переработанной идеей, с которой Кинг работал уже дважды, в конце 1970-х годов и в начале 1980-х — изначально под названием «Под Куполом», а потом «Каннибалы» (The Cannibals). Оба раза автор забрасывал работу, возвратившись к этому материалу лишь во второй половине 2000-х годов.
-Добавлена тринадцатая, заключительная, серия второго сезона
Заменена русская дорожка в 12 серии.

_________________


Вне форума [Профиль] [ЛС]
Показать сообщения:    
Ответить на тему

Текущее время: Сегодня 11:05

Часовой пояс: GMT + 3



Вы не можете начинать темы
Вы не можете отвечать на сообщения
Вы не можете редактировать свои сообщения
Вы не можете удалять свои сообщения
Вы не можете голосовать в опросах
Вы не можете прикреплять файлы к сообщениям
Вы не можете скачивать файлы