Today is a free download without charge Download

Андрей Миронов - Друзьям (1994) [FLAC|Lossless]<Retro>

Reply to topic
 
Author
Message

sashau ®

Gender:

Longevity: 8 years 6 months

Posts: 3497

Торрент-статистика

Post 18-Dec-2014 17:12

[Quote]

Андрей Миронов - Друзьям
- Год: 1994
Жанр: Retro
Продолжительность: 00:51:43
Издатель (лейбл): РОМ (Москва)
Номер по каталогу: CD 0111002 11
Тип рипа: image+.cue
Кодек: FLAC
Битрейт: Lossless
Треклист:
01 - Старые друзья
02 - Случай на прогулке
03 - Кот
04 - Остров невезения
05 - Полюбите пианиста
06 - Мама
07 - Ты полюбишь меня
08 - У дороги на краю
09 - Женюсь
10 - Чем мы не пара
11 - Что говорить
12 - Он и она
13 - Песня о шпаге
14 - Друзьям
15 - Возьмите билет на пароход
16 - Танго
17 - Песня Остапа Бендера

Отчёт ЕАС&#58;

Код:
Exact Audio Copy V0.99 prebeta 4 from 23. January 2008
EAC extraction logfile from 29. December 2010, 22:04
Unknown Artist / Unknown Title
Used drive  : ASUS    DRW-22B2S   Adapter: 0  ID: 1
Read mode               : Secure
Utilize accurate stream : Yes
Defeat audio cache      : Yes
Make use of C2 pointers : No
Read offset correction                      : 6
Overread into Lead-In and Lead-Out          : No
Fill up missing offset samples with silence : Yes
Delete leading and trailing silent blocks   : No
Null samples used in CRC calculations       : Yes
Used interface                              : Native Win32 interface for Win NT & 2000
Used output format              : User Defined Encoder
Selected bitrate                : 128 kBit/s
Quality                         : High
Add ID3 tag                     : No
Command line compressor         : C:\Program Files\Exact Audio Copy\Flac\flac.exe
Additional command line options : -8 -V %s
TOC of the extracted CD
     Track |   Start  |  Length  | Start sector | End sector
    ---------------------------------------------------------
        1  |  0:00.00 |  3:12.25 |         0    |    14424
        2  |  3:12.25 |  3:01.40 |     14425    |    28039
        3  |  6:13.65 |  2:00.00 |     28040    |    37039
        4  |  8:13.65 |  2:12.55 |     37040    |    46994
        5  | 10:26.45 |  3:17.10 |     46995    |    61779
        6  | 13:43.55 |  5:46.02 |     61780    |    87731
        7  | 19:29.57 |  3:38.43 |     87732    |   104124
        8  | 23:08.25 |  2:26.55 |    104125    |   115129
        9  | 25:35.05 |  3:20.72 |    115130    |   130201
       10  | 28:56.02 |  3:19.48 |    130202    |   145174
       11  | 32:15.50 |  3:09.05 |    145175    |   159354
       12  | 35:24.55 |  3:30.40 |    159355    |   175144
       13  | 38:55.20 |  2:34.27 |    175145    |   186721
       14  | 41:29.47 |  2:40.20 |    186722    |   198741
       15  | 44:09.67 |  2:10.63 |    198742    |   208554
       16  | 46:20.55 |  2:21.20 |    208555    |   219149
       17  | 48:42.00 |  3:01.50 |    219150    |   232774
Range status and errors
Selected range
     Filename D:\Музыка\Новая папка\Unknown Artist - Unknown Title.wav
     Peak level 99.7 %
     Range quality 100.0 %
     Test CRC 0B5074E6
     Copy CRC 0B5074E6
     Copy OK
No errors occurred
End of status report

Отчёт auCDtect Task manager&#58;

Код:
-----------------------
DON'T MODIFY THIS FILE
-----------------------
PERFORMER: auCDtect Task Manager, ver. 1.6.0 RC1 build 1.6.0.1
Copyright (c) 2008-2010 y-soft. All rights reserved
http://y-soft.org
ANALYZER: auCDtect: CD records authenticity detector, version 0.8.2
Copyright (c) 2004 Oleg Berngardt. All rights reserved.
Copyright (c) 2004 Alexander Djourik. All rights reserved.
FILE: Андрей Миронов - Друзьям.flac
  Size: 306275964 Hash: 124DFFAA10B938D7768B4196DF6FA563 Accuracy: -m0
  Conclusion: MPEG 95%
  Signature: 9AC7A3DC179F926A85436CC3C651392C7606B929

Спектрограмма&#58;

 
Other forum [Profile] [PM]
Similar theme
Forum Topic Author Torrent Replies Last Post
./templates/default/images/folder_dl.gif Обучающее видео Ягодкин Николай и Сурков Андрей | Скорочтение 2.0 (2014) CamRip Omen
2 | 0

0 | 3415

106

2014-08-11 12:37
Omen Latest
./templates/default/images/folder_dl.gif Медицина и Здоровье Андрей Липень | Йога для позвоночника и суставов (2016) [FB2] NarDok
1 | 0

0 | 1329

15

2015-10-21 21:21
NarDok Latest
./templates/default/images/folder_dl.gif Обучающее видео Андрей Журавлёв | Adobe Photoshop. Продвинутый уровень (2017) PCRec [H.264] Omen
1 | 0

0 | 973

0

2016-01-14 06:01
Omen Latest
./templates/default/images/folder_dl.gif Компьютерная литература Андрей Букреев | Миллион идей для компьютерных игр (2019) [PDF, RTF] }{@R0N
1 | 0

0 | 1029

5

2019-01-21 14:49
}{@R0N Latest
./templates/default/images/folder_dl.gif Психология, Тренинг, Саморазвитие Андрей Курпатов | Наука о сексе (2019) [PDF] }{@R0N
1 | 0

0 | 1149

2

2019-04-19 22:23
}{@R0N Latest
./templates/default/images/folder_dl.gif Зарубежное кино (HD Video) Три секунды / The Informer (Андреа Ди Стефано) [2019, Триллер, криминал, боевик, BDRip 720p] Dub (iTunes) + Original + Sub (Eng) Kon912
1 | 0

0 | 290

0

2020-06-25 21:50
Kon912 Latest
Display posts from previous:    
Reply to topic

The time now is: Today 22:35

All times are GMT + 3 Hours



You cannot post new topics in this forum
You cannot reply to topics in this forum
You cannot edit your posts in this forum
You cannot delete your posts in this forum
You cannot vote in polls in this forum
You cannot attach files in this forum
You cannot download files in this forum