Сегодня идет свободное скачивание без начисления Download

Сверхъестест<wbr>венное / Supernatural<wbr> (Сезон 10 / Серии 9 из 23) (Роберт Сингер / Robert Singer ...) [2014г., Ужасы, Фэнтези, Триллер, Драма, Детектив, WEB-DLRip] MVO (Newstudio & Novafilm) + Original (Eng) [обновляемая]

Ответить на тему
 
Автор
Сообщение

Clavik ®

Пол:

Стаж: 4 года 10 месяцев

Сообщений: 2268

Откуда: Украина

Торрент-статистика

Пост 16-Дек-2014 16:49

[Цитировать]

Сверхъестественное / Supernatural
«Небесная справедливость в действии»
- Русское название: Сверхъестественное
Оригинальное название: Supernatural
Страна: США
Год выпуска: 2014
Жанр: Ужасы, Фэнтези, Триллер, Драма, Детектив-Премьера (мир): 13 сентября 2005, ...
Премьера (РФ): 18 февраля 2007-Озвучка: и
Перевод: Многоголосый закадровый, профессиональный
Оригинальный аудиопоток: английский-Режиссер: Роберт Сингер / Robert Singer, Филип Сгриккиа / Philip Sgriccia, Ким Мэннерс / Kim Manners ...
В главных ролях: Джаред Падалеки, Дженсен Эклс, Джим Бивер, Миша Коллинз, Марк Шеппард, Марк Пеллегрино, Женевьев Падалеки, Кэти Кэссиди, Джеймс Патрик Стюарт, Саманта Феррис ...
Роли дублировали: Василий Дахненко, Михаил Тихонов, Олег Щербинин, Ольга Шорохова, Наталья Грачева ...-Описание фильма:
Два брата Дин и Сэм Винчестеры путешествуют по стране в поисках своего пропавшего отца, встречая на своём пути разную нечисть и сражаясь с ней.
Когда братья были совсем маленькими, их мать погибла при ужасных и необъяснимых обстоятельствах. С тех пор отец Дина и Сэма посвящает себя поискам той нечисти по вине которой погибла его любимая жена. Сыновья становятся ему помощниками. Повзрослев, Сэм решает отдалиться от постоянной борьбы со сверхъестественным и начать нормальную жизнь, поступить в университет. Но в его жизнь врывается брат Дин, который сообщает, что отец пропал и от него нет вестей уже несколько дней. Сэм решает согласиться на небольшое путешествие, но только на пару дней. Вот только пары дней для этого дела окажется мало...
Им не суждено жить нормальной жизнью. Их жизнь это борьба с нечистой силой. Они должны отыскать своего отца и узнать тайну гибели их матери.-Сезон: 10
Серии: 9 из 23 серий
Продолжительность: ~ 00:42:00 мин серия-Качество видео: WEB-DLRip
Формат: AVI
Видеокодек: XviD
Аудиокодек: AC-3
Видео: MPEG-4 Visual at 954 Кбит/сек: 720 x 400 (1.800) at 23.976 fps, 0.14 Бит/Пиксели
Аудио Rus: AC-3 at 192 Кбит/сек: 2 канала, 48,0 КГц |Newstudio & Novafilm|
Аудио Eng: AC-3 at 192 Кбит/сек: 2 канала, 48,0 КГц |Original|
Cубтитры: отсутствуют

Список серий&#58;

  • Чернота (Black)
  • Райхенбах (Reichenbach)
  • Исцелённая душа (Soul Survivor)
  • Бумажная луна (Paper Moon)
  • Фанфики (Fan Fiction)
  • Спросите у Дживса (Ask Jeeves)
  • Девочки, девочки, девочки (Girls, Girls, Girls)
  • Хиббинг 911 (Hibbing 911)
  • Вещи, которые мы оставили позади (The Things We Left Behind)
-

MediaInfo&#58;

Код:
Общее
Полное имя                               : E:\_Сериалы\Сверхъестественное\Supernatural.s10.NewStudio\supernatural.s10e01.webdl.rus.newstudio.tv.novafilm.tv.avi
Формат                                   : AVI
Формат/Информация                        : Audio Video Interleave
Размер файла                             : 409 Мбайт
Продолжительность                        : 42 м.
Общий поток                              : 1355 Кбит/сек
Программа кодирования                    : Lavf55.36.100
Видео
Идентификатор                            : 0
Формат                                   : MPEG-4 Visual
Профиль формата                          : Advanced Simple@L5
Параметр BVOP формата                    : 2
Параметр QPel формата                    : Нет
Параметр GMC формата                     : Без точки перехода
Параметр матрицы формата                 : Default (H.263)
Режим смешивания                         : Сжатый битовый поток
Идентификатор кодека                     : XVID
Идентификатор кодека/Подсказка           : XviD
Продолжительность                        : 42 м.
Битрейт                                  : 954 Кбит/сек
Ширина                                   : 720 пикселей
Высота                                   : 400 пикселей
Соотношение сторон                       : 16:9
Частота кадров                           : 23,976 кадра/сек
Цветовое пространство                    : YUV
Субдискретизация насыщенности            : 4:2:0
Битовая глубина                          : 8 бит
Тип развёртки                            : Прогрессивная
Метод сжатия                             : С потерями
Бит/(Пиксели*Кадры)                      : 0.138
Размер потока                            : 288 Мбайт (70%)
Библиотека кодирования                   : XviD 64
Аудио #1
Идентификатор                            : 1
Формат                                   : AC-3
Формат/Информация                        : Audio Coding 3
Расширение режима                        : CM (complete main)
Параметр Endianness формата              : Big
Идентификатор кодека                     : 2000
Продолжительность                        : 42 м.
Вид битрейта                             : Постоянный
Битрейт                                  : 192 Кбит/сек
Каналы                                   : 2 канала
Расположение каналов                     : Front: L R
Частота                                  : 48,0 КГц
Битовая глубина                          : 16 бит
Метод сжатия                             : С потерями
Размер потока                            : 58,0 Мбайт (14%)
Выравнивание                             : Соединение по промежуткам
Продолжительность промежутка             : 32  мс. (0,77 видеокадр)
Аудио #2
Идентификатор                            : 2
Формат                                   : AC-3
Формат/Информация                        : Audio Coding 3
Расширение режима                        : CM (complete main)
Параметр Endianness формата              : Big
Идентификатор кодека                     : 2000
Продолжительность                        : 42 м.
Вид битрейта                             : Постоянный
Битрейт                                  : 192 Кбит/сек
Каналы                                   : 2 канала
Расположение каналов                     : Front: L R
Частота                                  : 48,0 КГц
Битовая глубина                          : 16 бит
Метод сжатия                             : С потерями
Размер потока                            : 58,0 Мбайт (14%)
Выравнивание                             : Соединение по промежуткам
Продолжительность промежутка             : 32  мс. (0,77 видеокадр)
-

Скриншот c названием фильма

 
-Скриншоты:
       
-

Еще

         
-

Внимание! Раздача ведётся путём добавления новых серий!

Раздача ведётся путём добавления новых серий; при каждом добавлении создаётся новый торрент.
Чтобы начать докачку новой серии, пользователям необходимо сделать следующее:
1. остановить скачивание,
2. удалить старый торрент у себя из клиента (старые серии удалять не надо),
3. скачать новый торрент и запустить его у себя в клиенте вместо старого, при этом указать клиенту путь в старую папку, куда и должно происходить скачивание новых серий.
Ваш клиент при этом должен произвести хеширование (проверку) старой папки (если не производит сам - помогите ему сделать это), и будет докачивать только те серии которых у вас ещё нет. Старые серии при этом не удаляются, а продолжают раздаваться!
Eсли вы уже удалили старые серии, то предотвратить повторную закачку старых серий можно, отжав галочку в соответствующих местах при запуске нового торрента. По возможности, желательно не удалять старые серии как можно дольше, чтобы релизёр не столько продолжал раздавать старые серии, а смог сконцентрироваться на новых.
Совет для тех, кто не хочет ждать перехеширования:
Создайте ещё одну папку рядом с папкой сериала (рядом, а не в ней!!!). Каждую новую серию после удачной загрузки копируйте в новую папку так чтобы ваша основная папка всегда была пуста. Когда ваш новый торрент предложит вам закачать все файлы, выберете только последнюю. Для сидирования же укажите адрес новой папки.
Как закачать отдельный файл из торрента или докачать ранее пропущенные файлы торрента!
-

Как закачать отдельный файл

1. Открыть торрент
2. Снять галки с тех файлов торрента, которые мы не хотим закачивать. Оставляем только на нужных нам файлах (файле).
3. Нажать О.К.
В клиенте utorrent
Инструкция
1) Открыть торрент

2) Снять галки с тех файлов торрента, которые мы не хотим закачивать:
* либо вручную, снимая с каждого файла галку( скрин №1)
* либо, нажав кнопку "Снять метки (Select None)", сняв сразу со всех файлов(скрин №2)
№1

№2

Оставляем только на нужных нам файлах (файле).

3)Нажать О.К
-Добавлена девятая серия десятого сезона

_________________


Вне форума [Профиль] [ЛС]
Показать сообщения:    
Ответить на тему

Текущее время: Сегодня 04:35

Часовой пояс: GMT + 3



Вы не можете начинать темы
Вы не можете отвечать на сообщения
Вы не можете редактировать свои сообщения
Вы не можете удалять свои сообщения
Вы не можете голосовать в опросах
Вы не можете прикреплять файлы к сообщениям
Вы не можете скачивать файлы