Сегодня идет свободное скачивание без начисления Download

Сто дней после детства (Сергей Соловьев) [1974 г., Мелодрама, DVD5]

Ответить на тему
 
Автор
Сообщение

Omen ®

Стаж: 6 лет 1 месяц

Сообщений: 184308

Торрент-статистика

Пост 08-Фев-2012 18:30

[Цитировать]

Сто дней после детства - Русское название: Сто дней после детства
Год выпуска: 1975
Жанр: Мелодрама
Продолжительность: 1:28:54
Страна: СССР
Перевод: Не требуется
-Описание фильма:
Это лето в пионерском лагере запомнится Мите Лопухину надолго. Оно стало последним летом детства. Оно одарило Митю дружбой с прекрасным человеком, который открыл подростку смысл и величие искусства. А главное — он узнал радость и горечь первой любви…-Режиссер: Сергей Соловьев
Актеры:
Борис Токарев, Татьяна Друбич, Юрий Сорокин, Юрий Агилин, Сергей Хлебников, Татьяна Юринова, Сергей Шакуров, Нина Меньшикова, Ирина Малышева, Арина Алейникова- -Качество видео: DVD5
Формат: DVD Video
Видео кодек: MPEG-2
Аудио кодек: AC3
Видео: PAL 16:9 (720x576)@(1024x576) VBR, Auto Letterboxed 25.00fps 5524Kbps
Audio#1: (Dolby AC3, 6 ch), 448Kbps
Audio#2: (Dolby AC3, 1 ch) , 224Kbps -

MediaInfo

Код:
Формат                           : MPEG-PS
Размер файла                     : 1024 Мбайт
Продолжительность                : 22 м.
Режим общего битрейта            : Переменный
Общий поток                      : 6291 Кбит/сек
Видео
Идентификатор                    : 224 (0xE0)
Формат                           : MPEG Video
Версия формата                   : Version 2
Профиль формата                  : Main@Main
Параметр BVOP формата            : Да
Параметр матрицы формата         : Выборочная
Параметр GOP формата             : M=3, N=15
Продолжительность                : 22 м.
Вид битрейта                     : Переменный
Битрейт                          : 5524 Кбит/сек
Ширина                           : 720 пикселей
Высота                           : 576 пикселей
Соотношение сторон               : 4:3
Частота кадров                   : 25,000 кадров/сек
Стандарт вещания                 : PAL
Цветовое пространство            : YUV
Субдискретизация насыщенности    : 4:2:0
Битовая глубина                  : 8 бит
Тип развёртки                    : Чересстрочная
Порядок развёртки                : Верхнее поле первое
Метод сжатия                     : С потерями
Бит/(Пиксели*Кадры)              : 0.533
Размер потока                    : 894 Мбайт (87%)
Аудио #1
Идентификатор                    : 189 (0xBD)-128 (0x80)
Формат                           : AC-3
Формат/Информация                : Audio Coding 3
Расширение режима                : CM (complete main)
Режим смешивания                 : DVD-Video
Продолжительность                : 22 м.
Вид битрейта                     : Постоянный
Битрейт                          : 448 Кбит/сек
Каналы                           : 6 каналов
Расположение каналов             : Front: L C R, Side: L R, LFE
Частота                          : 48,0 КГц
Битовая глубина                  : 16 бит
Метод сжатия                     : С потерями
Задержка видео                   : -424 мс.
Размер потока                    : 72,9 Мбайт (7%)
Аудио #2
Идентификатор                    : 189 (0xBD)-129 (0x81)
Формат                           : AC-3
Формат/Информация                : Audio Coding 3
Расширение режима                : CM (complete main)
Режим смешивания                 : DVD-Video
Продолжительность                : 22 м.
Вид битрейта                     : Постоянный
Битрейт                          : 224 Кбит/сек
Каналы                           : 1 канал
Расположение каналов             : Front: C
Частота                          : 48,0 КГц
Битовая глубина                  : 16 бит
Метод сжатия                     : С потерями
Задержка видео                   : -359 мс.
Размер потока                    : 36,5 Мбайт (4%)
-

DVDInfo

Код:
Title: Сто дней после детства 89
Size: 4.05 Gb ( 4 243 886,00 KBytes ) - DVD-5
Enabled regions: 1, 2, 3, 4, 5, 6
VTS_01 :
Play Length: 00:00:51
Video: PAL 4:3 (720x576) VBR
VTS_02 :
Play Length: 01:28:58
Video: PAL 16:9 (720x576) VBR, Auto Letterboxed
Audio:
Russian (Dolby AC3, 6 ch)
Russian (Dolby AC3, 1 ch)
-Скриншоты:
           
Вне форума [Профиль] [ЛС]
Показать сообщения:    
Ответить на тему

Текущее время: Сегодня 02:20

Часовой пояс: GMT + 3



Вы не можете начинать темы
Вы не можете отвечать на сообщения
Вы не можете редактировать свои сообщения
Вы не можете удалять свои сообщения
Вы не можете голосовать в опросах
Вы не можете прикреплять файлы к сообщениям
Вы не можете скачивать файлы