Сегодня идет свободное скачивание без начисления Download

Пядь земли (Андрей Смирнов, Борис Яшин) [1964 г., Военный, DVD5]

Ответить на тему
 
Автор
Сообщение

Omen ®

Стаж: 5 лет 10 месяцев

Сообщений: 184329

Торрент-статистика

Пост 08-Фев-2012 18:30

[Цитировать]

Пядь земли (1964) DVD5- Русское название: Пядь земли
Год: 1964
Страна: СССР
Жанр: комедия, криминал
Время: 83 мин. / 01:23
-Режиссер: Андрей Смирнов, Борис Яшин
Сценарий: Григорий Бакланов
Оператор: Юрий Схиртладзе
Директор фильма: Владимир Канторович
Композитор: Александр Пирумов
-
Премьера (мир): 21 декабря 1964
-Описание фильма:
По повести Григория Бакланова "Хроники жаркого лета 1944-го". Вот уже несколько недель небольшая группа артиллеристов обороняет крохотный плацдарм на правом берегу Днестра. Скоро начнётся бой, в котором, может быть, суждено всем погибнуть — слишком неравны силы. Но пока можно отдохнуть, расслабиться и на миг почувствовать себя в обстановке мирной жизни…-Режиссер: Андрей Смирнов, Борис Яшин
Актеры:
Александр Збруев, Евгений Урбанский, Алексей Бахарь, Юрий Волынцев, Михаил Воронцов, Анатолий Голик, Николай Губенко, Юрий Дубровин, Лев Дуров, Светлана Живанкова, Алексей Зайцев, Иван Косых, Сергей Курилов, Александр Петров, Георгий Склянский, Элла Суханова, Александр Титов, Олег Форостенко, Леонид Чубаров- -Видеокодек: MPEG-2
Битрейт видео: ~ 7206 Кбит/сек
Размер кадра: PAL 4:3 (720x576)@(768x576) VBR
Качество видео: DVD5
Аудиокодек: AC3
Аудио #1:192 Кбит/сек, 2 канала, Front: L R
Аудио #2: 384 Кбит/сек, 6 каналов, Front: L C R, Side: L R, LFE
-

mediainfo

Код:
Общее
Полное имя                       : C:\Users\1\Downloads\Pyadj.zemli.1964.DVD-5\VIDEO_TS\VIDEO_TS.BUP
Формат                           : DVD Video
Профиль формата                  : Menu
Размер файла                     : 16,0 Кбайт
Режим общего битрейта            : Переменный
Видео
Идентификатор                    : 224 (0xE0)
Формат                           : MPEG Video
Версия формата                   : Version 2
Вид битрейта                     : Переменный
Ширина                           : 720 пикселей
Высота                           : 576 пикселей
Соотношение сторон               : 4:3
Частота кадров                   : 25,000 кадров/сек
Стандарт вещания                 : PAL
Метод сжатия                     : С потерями
Текст
Формат                           : RLE
Формат/Информация                : Run-length encoding
Битовая глубина                  : 2 бит
Общее
Полное имя                       : C:\Users\1\Downloads\Pyadj.zemli.1964.DVD-5\VIDEO_TS\VIDEO_TS.IFO
Формат                           : DVD Video
Профиль формата                  : Menu
Размер файла                     : 16,0 Кбайт
Режим общего битрейта            : Переменный
Видео
Идентификатор                    : 224 (0xE0)
Формат                           : MPEG Video
Версия формата                   : Version 2
Вид битрейта                     : Переменный
Ширина                           : 720 пикселей
Высота                           : 576 пикселей
Соотношение сторон               : 4:3
Частота кадров                   : 25,000 кадров/сек
Стандарт вещания                 : PAL
Метод сжатия                     : С потерями
Текст
Формат                           : RLE
Формат/Информация                : Run-length encoding
Битовая глубина                  : 2 бит
Общее
Полное имя                       : C:\Users\1\Downloads\Pyadj.zemli.1964.DVD-5\VIDEO_TS\VIDEO_TS.VOB
Формат                           : MPEG-PS
Размер файла                     : 10,0 Кбайт
Продолжительность                : 40 мс.
Общий поток                      : 2048 Кбит/сек
Видео
Идентификатор                    : 224 (0xE0)
Формат                           : MPEG Video
Версия формата                   : Version 2
Профиль формата                  : Main@Main
Параметр BVOP формата            : Нет
Параметр матрицы формата         : Выборочная
Продолжительность                : 40 мс.
Максимальный битрейт             : 9000 Кбит/сек
Ширина                           : 720 пикселей
Высота                           : 576 пикселей
Соотношение сторон               : 4:3
Частота кадров                   : 25,000 кадров/сек
Стандарт вещания                 : PAL
Цветовое пространство            : YUV
Субдискретизация насыщенности    : 4:2:0
Битовая глубина                  : 8 бит
Тип развёртки                    : Прогрессивная
Порядок развёртки                : Верхнее поле первое
Метод сжатия                     : С потерями
Основные цвета                   : SMPTE 170M
Характеристики трансфера         : SMPTE 170M
Коэффициенты матрицы             : SMPTE 170M
Меню
Общее
Полное имя                       : C:\Users\1\Downloads\Pyadj.zemli.1964.DVD-5\VIDEO_TS\VTS_01_0.BUP
Формат                           : DVD Video
Профиль формата                  : Program
Размер файла                     : 18,0 Кбайт
Продолжительность                : 28 с.
Режим общего битрейта            : Переменный
Общий поток                      : 5192 бит/сек
Видео
Идентификатор                    : 224 (0xE0)
Формат                           : MPEG Video
Версия формата                   : Version 2
Продолжительность                : 28 с.
Вид битрейта                     : Переменный
Ширина                           : 720 пикселей
Высота                           : 576 пикселей
Соотношение сторон               : 4:3
Частота кадров                   : 25,000 кадров/сек
Стандарт вещания                 : PAL
Метод сжатия                     : С потерями
Аудио
Идентификатор                    : 128 (0x80)
Формат                           : AC-3
Формат/Информация                : Audio Coding 3
Продолжительность                : 28 с.
Каналы                           : 2 канала
Частота                          : 48,0 КГц
Метод сжатия                     : С потерями
Язык                             : Russian
Меню
Продолжительность                : 28 с.
00:00:00.000                     : Chapter 1
00:00:28.000                     : Chapter 2
List (Audio)                     : 0
Общее
Полное имя                       : C:\Users\1\Downloads\Pyadj.zemli.1964.DVD-5\VIDEO_TS\VTS_01_0.IFO
Формат                           : DVD Video
Профиль формата                  : Program
Размер файла                     : 18,0 Кбайт
Продолжительность                : 28 с.
Режим общего битрейта            : Переменный
Общий поток                      : 5192 бит/сек
Видео
Идентификатор                    : 224 (0xE0)
Формат                           : MPEG Video
Версия формата                   : Version 2
Продолжительность                : 28 с.
Вид битрейта                     : Переменный
Ширина                           : 720 пикселей
Высота                           : 576 пикселей
Соотношение сторон               : 4:3
Частота кадров                   : 25,000 кадров/сек
Стандарт вещания                 : PAL
Метод сжатия                     : С потерями
Аудио
Идентификатор                    : 128 (0x80)
Формат                           : AC-3
Формат/Информация                : Audio Coding 3
Продолжительность                : 28 с.
Каналы                           : 2 канала
Частота                          : 48,0 КГц
Метод сжатия                     : С потерями
Язык                             : Russian
Меню
Продолжительность                : 28 с.
00:00:00.000                     : Chapter 1
00:00:28.000                     : Chapter 2
List (Audio)                     : 0
Общее
Полное имя                       : C:\Users\1\Downloads\Pyadj.zemli.1964.DVD-5\VIDEO_TS\VTS_01_0.VOB
Формат                           : MPEG-PS
Размер файла                     : 5,09 Мбайт
Продолжительность                : 26 ч.
Общий поток                      : 447 бит/сек
Видео
Идентификатор                    : 224 (0xE0)
Формат                           : MPEG Video
Версия формата                   : Version 2
Профиль формата                  : Main@Main
Параметр BVOP формата            : Нет
Параметр матрицы формата         : Выборочная
Параметр GOP формата             : N=1
Продолжительность                : 139 мс.
Максимальный битрейт             : 9000 Кбит/сек
Ширина                           : 720 пикселей
Высота                           : 576 пикселей
Соотношение сторон               : 4:3
Частота кадров                   : 25,000 кадров/сек
Стандарт вещания                 : PAL
Цветовое пространство            : YUV
Субдискретизация насыщенности    : 4:2:0
Битовая глубина                  : 8 бит
Тип развёртки                    : Прогрессивная
Порядок развёртки                : Верхнее поле первое
Метод сжатия                     : С потерями
Основные цвета                   : SMPTE 170M
Характеристики трансфера         : SMPTE 170M
Коэффициенты матрицы             : SMPTE 170M
Аудио
Идентификатор                    : 189 (0xBD)-128 (0x80)
Формат                           : AC-3
Формат/Информация                : Audio Coding 3
Расширение режима                : CM (complete main)
Режим смешивания                 : DVD-Video
Продолжительность                : 1 м. 1 с.
Вид битрейта                     : Постоянный
Битрейт                          : 192 Кбит/сек
Каналы                           : 2 канала
Расположение каналов             : Front: L R
Частота                          : 48,0 КГц
Битовая глубина                  : 16 бит
Метод сжатия                     : С потерями
Задержка видео                   : 89 мс.
Размер потока                    : 1,40 Мбайт (27%)
Текст
Идентификатор                    : 189 (0xBD)-32 (0x20)
Формат                           : RLE
Формат/Информация                : Run-length encoding
Режим смешивания                 : DVD-Video
Продолжительность                : 26 ч.
Задержка видео                   : 89 мс.
Меню
Общее
Полное имя                       : C:\Users\1\Downloads\Pyadj.zemli.1964.DVD-5\VIDEO_TS\VTS_01_1.VOB
Формат                           : MPEG-PS
Размер файла                     : 26,9 Мбайт
Продолжительность                : 28 с.
Общий поток                      : 8066 Кбит/сек
Видео
Идентификатор                    : 224 (0xE0)
Формат                           : MPEG Video
Версия формата                   : Version 2
Профиль формата                  : Main@Main
Параметр BVOP формата            : Да
Параметр матрицы формата         : По умолчанию
Параметр GOP формата             : M=3, N=12
Продолжительность                : 27 с.
Битрейт                          : 7754 Кбит/сек
Ширина                           : 720 пикселей
Высота                           : 576 пикселей
Соотношение сторон               : 4:3
Частота кадров                   : 25,000 кадров/сек
Стандарт вещания                 : PAL
Цветовое пространство            : YUV
Субдискретизация насыщенности    : 4:2:0
Битовая глубина                  : 8 бит
Тип развёртки                    : Чересстрочная
Порядок развёртки                : Нижнее поле первое
Метод сжатия                     : С потерями
Бит/(Пиксели*Кадры)              : 0.748
Размер потока                    : 25,7 Мбайт (95%)
Аудио
Идентификатор                    : 189 (0xBD)-128 (0x80)
Формат                           : AC-3
Формат/Информация                : Audio Coding 3
Расширение режима                : CM (complete main)
Режим смешивания                 : DVD-Video
Продолжительность                : 28 с.
Вид битрейта                     : Постоянный
Битрейт                          : 192 Кбит/сек
Каналы                           : 2 канала
Расположение каналов             : Front: L R
Частота                          : 48,0 КГц
Битовая глубина                  : 16 бит
Метод сжатия                     : С потерями
Задержка видео                   : -80 мс.
Размер потока                    : 656 Кбайт (2%)
Меню
Общее
Полное имя                       : C:\Users\1\Downloads\Pyadj.zemli.1964.DVD-5\VIDEO_TS\VTS_02_0.BUP
Формат                           : DVD Video
Профиль формата                  : Program
Размер файла                     : 42,0 Кбайт
Продолжительность                : 1 ч. 17 м.
Режим общего битрейта            : Переменный
Общий поток                      : 73 бит/сек
Видео
Идентификатор                    : 224 (0xE0)
Формат                           : MPEG Video
Версия формата                   : Version 2
Продолжительность                : 1 ч. 17 м.
Вид битрейта                     : Переменный
Ширина                           : 720 пикселей
Высота                           : 576 пикселей
Соотношение сторон               : 4:3
Частота кадров                   : 25,000 кадров/сек
Стандарт вещания                 : PAL
Метод сжатия                     : С потерями
Аудио #1
Идентификатор                    : 128 (0x80)
Формат                           : AC-3
Формат/Информация                : Audio Coding 3
Продолжительность                : 1 ч. 17 м.
Каналы                           : 2 канала
Частота                          : 48,0 КГц
Метод сжатия                     : С потерями
Язык                             : Russian
Аудио #2
Идентификатор                    : 129 (0x81)
Формат                           : AC-3
Формат/Информация                : Audio Coding 3
Продолжительность                : 1 ч. 17 м.
Каналы                           : 6 каналов
Частота                          : 48,0 КГц
Метод сжатия                     : С потерями
Язык                             : Russian
Меню
Продолжительность                : 1 ч. 17 м.
00:00:00.000                     : Chapter 1
00:00:21.840                     : Chapter 2
00:12:13.680                     : Chapter 3
00:30:16.920                     : Chapter 4
00:34:41.920                     : Chapter 5
00:47:28.880                     : Chapter 6
00:56:13.840                     : Chapter 7
01:06:31.680                     : Chapter 8
01:13:43.400                     : Chapter 9
01:17:52.920                     : Chapter 10
List (Audio)                     : 0 / 1
Общее
Полное имя                       : C:\Users\1\Downloads\Pyadj.zemli.1964.DVD-5\VIDEO_TS\VTS_02_0.IFO
Формат                           : DVD Video
Профиль формата                  : Program
Размер файла                     : 42,0 Кбайт
Продолжительность                : 1 ч. 17 м.
Режим общего битрейта            : Переменный
Общий поток                      : 73 бит/сек
Видео
Идентификатор                    : 224 (0xE0)
Формат                           : MPEG Video
Версия формата                   : Version 2
Продолжительность                : 1 ч. 17 м.
Вид битрейта                     : Переменный
Ширина                           : 720 пикселей
Высота                           : 576 пикселей
Соотношение сторон               : 4:3
Частота кадров                   : 25,000 кадров/сек
Стандарт вещания                 : PAL
Метод сжатия                     : С потерями
Аудио #1
Идентификатор                    : 128 (0x80)
Формат                           : AC-3
Формат/Информация                : Audio Coding 3
Продолжительность                : 1 ч. 17 м.
Каналы                           : 2 канала
Частота                          : 48,0 КГц
Метод сжатия                     : С потерями
Язык                             : Russian
Аудио #2
Идентификатор                    : 129 (0x81)
Формат                           : AC-3
Формат/Информация                : Audio Coding 3
Продолжительность                : 1 ч. 17 м.
Каналы                           : 6 каналов
Частота                          : 48,0 КГц
Метод сжатия                     : С потерями
Язык                             : Russian
Меню
Продолжительность                : 1 ч. 17 м.
00:00:00.000                     : Chapter 1
00:00:21.840                     : Chapter 2
00:12:13.680                     : Chapter 3
00:30:16.920                     : Chapter 4
00:34:41.920                     : Chapter 5
00:47:28.880                     : Chapter 6
00:56:13.840                     : Chapter 7
01:06:31.680                     : Chapter 8
01:13:43.400                     : Chapter 9
01:17:52.920                     : Chapter 10
List (Audio)                     : 0 / 1
Общее
Полное имя                       : C:\Users\1\Downloads\Pyadj.zemli.1964.DVD-5\VIDEO_TS\VTS_02_0.VOB
Формат                           : MPEG-PS
Размер файла                     : 10,0 Кбайт
Продолжительность                : 40 мс.
Общий поток                      : 2048 Кбит/сек
Видео
Идентификатор                    : 224 (0xE0)
Формат                           : MPEG Video
Версия формата                   : Version 2
Профиль формата                  : Main@Main
Параметр BVOP формата            : Нет
Параметр матрицы формата         : Выборочная
Продолжительность                : 40 мс.
Максимальный битрейт             : 9000 Кбит/сек
Ширина                           : 720 пикселей
Высота                           : 576 пикселей
Соотношение сторон               : 4:3
Частота кадров                   : 25,000 кадров/сек
Стандарт вещания                 : PAL
Цветовое пространство            : YUV
Субдискретизация насыщенности    : 4:2:0
Битовая глубина                  : 8 бит
Тип развёртки                    : Прогрессивная
Порядок развёртки                : Верхнее поле первое
Метод сжатия                     : С потерями
Основные цвета                   : SMPTE 170M
Характеристики трансфера         : SMPTE 170M
Коэффициенты матрицы             : SMPTE 170M
Меню
Общее
Полное имя                       : C:\Users\1\Downloads\Pyadj.zemli.1964.DVD-5\VIDEO_TS\VTS_02_1.VOB
Формат                           : MPEG-PS
Размер файла                     : 1024 Мбайт
Видео
Идентификатор                    : 224 (0xE0)
Формат                           : MPEG Video
Версия формата                   : Version 2
Профиль формата                  : Main@Main
Параметр BVOP формата            : Да
Параметр матрицы формата         : По умолчанию
Параметр GOP формата             : M=3, N=12
Максимальный битрейт             : 7206 Кбит/сек
Ширина                           : 720 пикселей
Высота                           : 576 пикселей
Соотношение сторон               : 4:3
Частота кадров                   : 25,000 кадров/сек
Стандарт вещания                 : PAL
Цветовое пространство            : YUV
Субдискретизация насыщенности    : 4:2:0
Битовая глубина                  : 8 бит
Тип развёртки                    : Чересстрочная
Порядок развёртки                : Нижнее поле первое
Метод сжатия                     : С потерями
Аудио #1
Идентификатор                    : 189 (0xBD)-128 (0x80)
Формат                           : AC-3
Формат/Информация                : Audio Coding 3
Расширение режима                : CM (complete main)
Режим смешивания                 : DVD-Video
Вид битрейта                     : Постоянный
Битрейт                          : 192 Кбит/сек
Каналы                           : 2 канала
Расположение каналов             : Front: L R
Частота                          : 48,0 КГц
Битовая глубина                  : 16 бит
Метод сжатия                     : С потерями
Задержка видео                   : -80 мс.
Аудио #2
Идентификатор                    : 189 (0xBD)-129 (0x81)
Формат                           : AC-3
Формат/Информация                : Audio Coding 3
Расширение режима                : CM (complete main)
Режим смешивания                 : DVD-Video
Вид битрейта                     : Постоянный
Битрейт                          : 384 Кбит/сек
Каналы                           : 6 каналов
Расположение каналов             : Front: L C R, Side: L R, LFE
Частота                          : 48,0 КГц
Битовая глубина                  : 16 бит
Метод сжатия                     : С потерями
Задержка видео                   : -80 мс.
Меню
Общее
Полное имя                       : C:\Users\1\Downloads\Pyadj.zemli.1964.DVD-5\VIDEO_TS\VTS_02_2.VOB
Формат                           : MPEG-PS
Размер файла                     : 1024 Мбайт
Продолжительность                : 18 м.
Общий поток                      : 7899 Кбит/сек
Видео
Идентификатор                    : 224 (0xE0)
Формат                           : MPEG Video
Версия формата                   : Version 2
Профиль формата                  : Main@Main
Параметр BVOP формата            : Да
Параметр матрицы формата         : По умолчанию
Параметр GOP формата             : M=3, N=12
Продолжительность                : 18 м.
Битрейт                          : 7206 Кбит/сек
Ширина                           : 720 пикселей
Высота                           : 576 пикселей
Соотношение сторон               : 4:3
Частота кадров                   : 25,000 кадров/сек
Стандарт вещания                 : PAL
Цветовое пространство            : YUV
Субдискретизация насыщенности    : 4:2:0
Битовая глубина                  : 8 бит
Тип развёртки                    : Чересстрочная
Порядок развёртки                : Нижнее поле первое
Метод сжатия                     : С потерями
Бит/(Пиксели*Кадры)              : 0.695
Размер потока                    : 929 Мбайт (91%)
Аудио #1
Идентификатор                    : 189 (0xBD)-128 (0x80)
Формат                           : AC-3
Формат/Информация                : Audio Coding 3
Расширение режима                : CM (complete main)
Режим смешивания                 : DVD-Video
Продолжительность                : 18 м.
Вид битрейта                     : Постоянный
Битрейт                          : 192 Кбит/сек
Каналы                           : 2 канала
Расположение каналов             : Front: L R
Частота                          : 48,0 КГц
Битовая глубина                  : 16 бит
Метод сжатия                     : С потерями
Задержка видео                   : -328 мс.
Размер потока                    : 24,9 Мбайт (2%)
Аудио #2
Идентификатор                    : 189 (0xBD)-129 (0x81)
Формат                           : AC-3
Формат/Информация                : Audio Coding 3
Расширение режима                : CM (complete main)
Режим смешивания                 : DVD-Video
Продолжительность                : 18 м.
Вид битрейта                     : Постоянный
Битрейт                          : 384 Кбит/сек
Каналы                           : 6 каналов
Расположение каналов             : Front: L C R, Side: L R, LFE
Частота                          : 48,0 КГц
Битовая глубина                  : 16 бит
Метод сжатия                     : С потерями
Задержка видео                   : -360 мс.
Размер потока                    : 49,8 Мбайт (5%)
Меню
Общее
Полное имя                       : C:\Users\1\Downloads\Pyadj.zemli.1964.DVD-5\VIDEO_TS\VTS_02_3.VOB
Формат                           : MPEG-PS
Размер файла                     : 1024 Мбайт
Продолжительность                : 18 м.
Общий поток                      : 7899 Кбит/сек
Видео
Идентификатор                    : 224 (0xE0)
Формат                           : MPEG Video
Версия формата                   : Version 2
Профиль формата                  : Main@Main
Параметр BVOP формата            : Да
Параметр матрицы формата         : По умолчанию
Параметр GOP формата             : M=3, N=12
Продолжительность                : 18 м.
Битрейт                          : 7206 Кбит/сек
Ширина                           : 720 пикселей
Высота                           : 576 пикселей
Соотношение сторон               : 4:3
Частота кадров                   : 25,000 кадров/сек
Стандарт вещания                 : PAL
Цветовое пространство            : YUV
Субдискретизация насыщенности    : 4:2:0
Битовая глубина                  : 8 бит
Тип развёртки                    : Чересстрочная
Порядок развёртки                : Нижнее поле первое
Метод сжатия                     : С потерями
Бит/(Пиксели*Кадры)              : 0.695
Размер потока                    : 928 Мбайт (91%)
Аудио #1
Идентификатор                    : 189 (0xBD)-128 (0x80)
Формат                           : AC-3
Формат/Информация                : Audio Coding 3
Расширение режима                : CM (complete main)
Режим смешивания                 : DVD-Video
Продолжительность                : 18 м.
Вид битрейта                     : Постоянный
Битрейт                          : 192 Кбит/сек
Каналы                           : 2 канала
Расположение каналов             : Front: L R
Частота                          : 48,0 КГц
Битовая глубина                  : 16 бит
Метод сжатия                     : С потерями
Задержка видео                   : -576 мс.
Размер потока                    : 24,9 Мбайт (2%)
Аудио #2
Идентификатор                    : 189 (0xBD)-129 (0x81)
Формат                           : AC-3
Формат/Информация                : Audio Coding 3
Расширение режима                : CM (complete main)
Режим смешивания                 : DVD-Video
Продолжительность                : 18 м.
Вид битрейта                     : Постоянный
Битрейт                          : 384 Кбит/сек
Каналы                           : 6 каналов
Расположение каналов             : Front: L C R, Side: L R, LFE
Частота                          : 48,0 КГц
Битовая глубина                  : 16 бит
Метод сжатия                     : С потерями
Задержка видео                   : -576 мс.
Размер потока                    : 49,8 Мбайт (5%)
Меню
Общее
Полное имя                       : C:\Users\1\Downloads\Pyadj.zemli.1964.DVD-5\VIDEO_TS\VTS_02_4.VOB
Формат                           : MPEG-PS
Размер файла                     : 1024 Мбайт
Продолжительность                : 18 м.
Общий поток                      : 7900 Кбит/сек
Видео
Идентификатор                    : 224 (0xE0)
Формат                           : MPEG Video
Версия формата                   : Version 2
Профиль формата                  : Main@Main
Параметр BVOP формата            : Да
Параметр матрицы формата         : По умолчанию
Параметр GOP формата             : M=3, N=12
Продолжительность                : 18 м.
Битрейт                          : 7206 Кбит/сек
Ширина                           : 720 пикселей
Высота                           : 576 пикселей
Соотношение сторон               : 4:3
Частота кадров                   : 25,000 кадров/сек
Стандарт вещания                 : PAL
Цветовое пространство            : YUV
Субдискретизация насыщенности    : 4:2:0
Битовая глубина                  : 8 бит
Тип развёртки                    : Чересстрочная
Порядок развёртки                : Нижнее поле первое
Метод сжатия                     : С потерями
Бит/(Пиксели*Кадры)              : 0.695
Размер потока                    : 929 Мбайт (91%)
Аудио #1
Идентификатор                    : 189 (0xBD)-128 (0x80)
Формат                           : AC-3
Формат/Информация                : Audio Coding 3
Расширение режима                : CM (complete main)
Режим смешивания                 : DVD-Video
Продолжительность                : 18 м.
Вид битрейта                     : Постоянный
Битрейт                          : 192 Кбит/сек
Каналы                           : 2 канала
Расположение каналов             : Front: L R
Частота                          : 48,0 КГц
Битовая глубина                  : 16 бит
Метод сжатия                     : С потерями
Задержка видео                   : -200 мс.
Размер потока                    : 24,9 Мбайт (2%)
Аудио #2
Идентификатор                    : 189 (0xBD)-129 (0x81)
Формат                           : AC-3
Формат/Информация                : Audio Coding 3
Расширение режима                : CM (complete main)
Режим смешивания                 : DVD-Video
Продолжительность                : 18 м.
Вид битрейта                     : Постоянный
Битрейт                          : 384 Кбит/сек
Каналы                           : 6 каналов
Расположение каналов             : Front: L C R, Side: L R, LFE
Частота                          : 48,0 КГц
Битовая глубина                  : 16 бит
Метод сжатия                     : С потерями
Задержка видео                   : -232 мс.
Размер потока                    : 49,8 Мбайт (5%)
Меню
Общее
Полное имя                       : C:\Users\1\Downloads\Pyadj.zemli.1964.DVD-5\VIDEO_TS\VTS_02_5.VOB
Формат                           : MPEG-PS
Размер файла                     : 305 Мбайт
Продолжительность                : 5 м. 23 с.
Общий поток                      : 7899 Кбит/сек
Видео
Идентификатор                    : 224 (0xE0)
Формат                           : MPEG Video
Версия формата                   : Version 2
Профиль формата                  : Main@Main
Параметр BVOP формата            : Да
Параметр матрицы формата         : По умолчанию
Параметр GOP формата             : M=3, N=12
Продолжительность                : 5 м. 23 с.
Битрейт                          : 7206 Кбит/сек
Ширина                           : 720 пикселей
Высота                           : 576 пикселей
Соотношение сторон               : 4:3
Частота кадров                   : 25,000 кадров/сек
Стандарт вещания                 : PAL
Цветовое пространство            : YUV
Субдискретизация насыщенности    : 4:2:0
Битовая глубина                  : 8 бит
Тип развёртки                    : Чересстрочная
Порядок развёртки                : Нижнее поле первое
Метод сжатия                     : С потерями
Бит/(Пиксели*Кадры)              : 0.695
Размер потока                    : 276 Мбайт (91%)
Аудио #1
Идентификатор                    : 189 (0xBD)-128 (0x80)
Формат                           : AC-3
Формат/Информация                : Audio Coding 3
Расширение режима                : CM (complete main)
Режим смешивания                 : DVD-Video
Продолжительность                : 5 м. 23 с.
Вид битрейта                     : Постоянный
Битрейт                          : 192 Кбит/сек
Каналы                           : 2 канала
Расположение каналов             : Front: L R
Частота                          : 48,0 КГц
Битовая глубина                  : 16 бит
Метод сжатия                     : С потерями
Задержка видео                   : -344 мс.
Размер потока                    : 7,40 Мбайт (2%)
Аудио #2
Идентификатор                    : 189 (0xBD)-129 (0x81)
Формат                           : AC-3
Формат/Информация                : Audio Coding 3
Расширение режима                : CM (complete main)
Режим смешивания                 : DVD-Video
Продолжительность                : 5 м. 23 с.
Вид битрейта                     : Постоянный
Битрейт                          : 384 Кбит/сек
Каналы                           : 6 каналов
Расположение каналов             : Front: L C R, Side: L R, LFE
Частота                          : 48,0 КГц
Битовая глубина                  : 16 бит
Метод сжатия                     : С потерями
Задержка видео                   : -344 мс.
Размер потока                    : 14,8 Мбайт (5%)
Меню
-Скриншоты:
         
         
Вне форума [Профиль] [ЛС]
Показать сообщения:    
Ответить на тему

Текущее время: Сегодня 21:03

Часовой пояс: GMT + 3



Вы не можете начинать темы
Вы не можете отвечать на сообщения
Вы не можете редактировать свои сообщения
Вы не можете удалять свои сообщения
Вы не можете голосовать в опросах
Вы не можете прикреплять файлы к сообщениям
Вы не можете скачивать файлы