Сегодня идет свободное скачивание без начисления Download

Земля Санникова (Альберт С.Мкртчян, Леонид Попов) [1973 г., Приключения] DVD5

Ответить на тему
 
Автор
Сообщение

Omen ®

Стаж: 5 лет 10 месяцев

Сообщений: 184329

Торрент-статистика

Пост 08-Фев-2012 18:30

[Цитировать]

Земля Санникова -
Год выпуска: 1973
Страна: СССР (Мосфильм)
Жанр: приключения
Продолжительность: 01:29:38 -Режиссер: Альберт С. Мкртчян, Леонид Попов
Сценарий: Владислав Федосеев, Марк Захаров
Композитор: Александр Зацепин
В ролях:
Владислав Дворжецкий, Георгий Вицин, Олег Даль, Юрий Назаров, Махмуд Эсамбаев, Николай Гриценко, Алена Чухрай, Геворк Чепчян, Петр Абашеев, Турсун Куралиев, Екатерина Самбуева, Назира Мамбетова, Сергей Полежаев, Александр Суснин, Николай Крюков............

Описание фильма:
Более ста лет загадка земли, затерянной среди арктических льдов, волновала путешественников, но никто не мог достичь ее. Герой фильма, политический ссыльный Ильин, отправляется в экспедицию, которую финансирует богатый золотопромышленник. Отважные путешественники обнаруживают среди ледяного безмолвия цветущий оазис. Но выясняется, что во время землетрясения он должен исчезнуть. Ильин с товарищами стремится снова достичь материка в попытке предотвратить катастрофу.......-Качество видео: DVD5
Видеокодек: MPEG-2
Формат: MPEG Video
Видео: PAL 4:3 (720x576)@(768x576) VBR, ~5500kb/s
Аудиокодек: AC3
Аудио №1: AC3 5.1, 448Kbps - Русский(оригинал)
Аудио №2: AC3.1, 224Kbps - Русский(оригинал )с-Полная реставрация изображения и звука. "Крупный план"-

Знаете ли вы, что...

* Занимает по посещаемости 84-е место среди отечественных фильмов за всю историю советского кинопроката
* Первоначально к участию в фильме планировалось привлечь Владимира Высоцкого (на роль Крестовского). Однако, в связи с тем, что песни Высоцкого прозвучали на «Немецкой волне» — «враждебном радиоголосе», художественный совет киностудии «Мосфильм» не утвердил его на роль в фильме.
* Ледовый поход снимали на Финском заливе, а Землю Санникова — в Долине Гейзеров (Кроноцкий заповедник на Камчатке).
* В одном из эпизодов снимался Борис Грызлов – сидел за столиком в кафе, где проходила встреча главных героев.
* Согласно последним исследованиям ученые пришли к выводу что земля Санникова существовала и лишь в самом недавнем прошлом исчезла, растаяв, так как была сложенна ископаемым льдом. Это объясняет почему ее неизменно видели более ранние экспедиции, а последующие возвращались ни с чем.
-

DVDInfo

Код:
Title:
Size: 4.05 Gb ( 4 250 446 KBytes ) - DVD-5
Enabled regions: 1, 2, 3, 4, 5, 6, 7, 8
VTS_01 :
Play Length: 00:00:51
Video: PAL 4:3 (720x576) VBR
VTS_02 :
Play Length: 01:29:38
Video: PAL 16:9 (720x576) VBR
Audio:
Russian (Dolby AC3, 6 ch)
Russian (Dolby AC3, 1 ch)
-

MediaInfo

Код:
Общее
Полное имя                       : D:\Films\zemla Sannikova\VIDEO_TS\VTS_02_1.VOB
Формат                           : MPEG-PS
Размер файла                     : 1024 Мбайт
Продолжительность                : 22 м.
Общий поток                      : 6291 Кбит/сек
Видео
Идентификатор                    : 224 (0xE0)
Формат                           : MPEG Video
Версия формата                   : Version 2
Профиль формата                  : Main@Main
Параметр BVOP формата            : Да
Параметр матрицы формата         : По умолчанию
Параметры GOP формата            : M=3, N=12
Продолжительность                : 22 м.
Вид битрейта                     : Постоянный
Битрейт                          : 5500 Кбит/сек
Ширина                           : 720 пикс.
Высота                           : 576 пикс.
Соотношение сторон               : 4:3
Частота кадров                   : 25,000 кадр/сек
Стандарт вещания                 : PAL
Цветовое пространство            : YUV
Подвыборка цветности             : 4:2:0
Битовая глубина                  : 8 бит
Тип развёртки                    : Чересстрочная
Порядок развёртки                : Верхнее поле первое
Метод сжатия                     : С потерями
Бит/(Пиксели*Кадры)              : 0.530
Размер потока                    : 894 Мбайт (87%)
Аудио #1
Идентификатор                    : 128 (0x80)
Формат                           : AC-3
Формат/Информация                : Audio Coding 3
Расширение режима                : CM (complete main)
Продолжительность                : 22 м.
Вид битрейта                     : Постоянный
Битрейт                          : 448 Кбит/сек
Канал(ы)                         : 6 канала(ов)
Расположение каналов             : Front: L C R, Side: L R, LFE
Частота                          : 48,0 КГц
Битовая глубина                  : 16 бит
Метод сжатия                     : С потерями
Задержка видео                   : -80 мс.
Размер потока                    : 72,9 Мбайт (7%)
Аудио #2
Идентификатор                    : 129 (0x81)
Формат                           : AC-3
Формат/Информация                : Audio Coding 3
Расширение режима                : CM (complete main)
Продолжительность                : 22 м.
Вид битрейта                     : Постоянный
Битрейт                          : 224 Кбит/сек
Канал(ы)                         : 1 канал
Расположение каналов             : Front: C
Частота                          : 48,0 КГц
Битовая глубина                  : 16 бит
Метод сжатия                     : С потерями
Задержка видео                   : -80 мс.
Размер потока                    : 36,4 Мбайт (4%)
Меню
-

Премьеры:


1 октября 1973 СССР 41 100 000 чел.
5 сентября 1974 Венгрия
21 сентября 1975 Финляндия
**********************
зрители СССР 41.1 млн
премьера (мир) 1 октября 1973
- -Скриншоты:                


Последний раз редактировалось: Omen (2012-02-10 11:15), всего редактировалось 3 раз(а)
Вне форума [Профиль] [ЛС]

fat2010

Стаж: 6 лет 5 месяцев

Сообщений: 20

Торрент-статистика

Пост 07-Янв-2013 19:45 (спустя 10 месяцев 28 дней)

[Цитировать]

Спасибо!Фильм класс!Рекомендую.
Вне форума [Профиль] [ЛС]
Показать сообщения:    
Ответить на тему

Текущее время: Сегодня 05:18

Часовой пояс: GMT + 3



Вы не можете начинать темы
Вы не можете отвечать на сообщения
Вы не можете редактировать свои сообщения
Вы не можете удалять свои сообщения
Вы не можете голосовать в опросах
Вы не можете прикреплять файлы к сообщениям
Вы не можете скачивать файлы