Сегодня идет свободное скачивание без начисления Download

Том и Джерри. Золотая коллекция: Том первый / Tom & Jerry Golden Collection: Volume One / Серии: 37 из 37 (Джозеф Барбера, Уильям Ханна / Joseph Barbera, William Hanna) [1940-1948, мультфильм, комедия, семейный, BDRip] DVO

Ответить на тему
 
Автор
Сообщение

Omen ®

Стаж: 4 года 10 месяцев

Сообщений: 190643

Торрент-статистика

Пост 02-Дек-2014 14:34

[Цитировать]

Том и Джерри. Золотая коллекция: Том первый / Tom & Jerry Golden Collection: Volume One
37 Remastered Theatrical Shorts
Страна: США
Жанр: мультфильм, комедия, семейный
Продолжительность: 4 час. 46 мин. (37 серий по ~ 7 мин. 43 сек.)
Год выпуска: 1940-1948
Перевод: Профессиональный (двухголосый закадровый) - ИДДК
Русские субтитры: нет
Режиссёр: Джозеф Барбера, Уильям Ханна / Joseph Barbera, William Hanna
Описание: Кот Том и мышонок Джерри вызывали смех и покоряли сердца детей и взрослых всего мира на протяжении десятилетий. До сих пор эти два мультгероя-суперзвезды с неизменным успехом поражают зрителей своим мастерством перевоплощения, новыми изобретательными трюками и розыгрышами.
Следите за уморительными проделками этой неуловимой парочки в первоклассной коллекции незабываемых мультяшек, и вы узнаете об изощренных ловушках, которые подстраивают друг другу веселые герои, и отправляйтесь в незабываемое приключение – лучшее в истории анимационного кино!

Список серий

001. Puss Gets The Boot / За что наказали кота / (1940)
002. The Midnight Snack / Поздний ужин / (1941)
003. The Night Before Christmas / Ночь перед Рождеством / (1941)
004. Fraidy Cat / Кот-трусишка / (1942)
005. Dog Trouble / Пес - нам не товарищ / (1942)
006. Puss N' Toots / Гости не должны скучать / (1942)
007. The Bowling Alley-Cat / Давай сыграем в кегли / (1942)
008. Fine Feathered Friend / Пернатая заступница / (1942)
009. Sufferin' Cats! / К чему приводит жадность / (1943)
010. The Lonesome Mouse / Когда мышонку стало скучно / (1943)
011. The Yankee Doodle Mouse / Мышонок-стратег / (1943)
012. Baby Puss / Нелегко быть младенцем / (1943)
013. The Zoot Cat / Кот-стиляга / (1944)
014. The Million Dollar Cat / Кот миллионер / (1944)
015. The Bodyguard / Телохранитель / (1944)
016. Puttin' On the Dog / В собачьей шкуре / (1944)
017. Mouse Trouble / Неуловимый мышонок / (1944)
018. The Mouse Comes To Dinner / Романтический ужин / (1945)
019. Mouse In Manhattan / Мышонок в Нью-Йорке / (1945)
020. Tee For Two / Игра в гольф / (1945)
021. Flirty Birdy / Птичке хочется любви / (1945)
022. Quiet Please! / Соблюдайте тишину / (1945)
023. Springtime For Thomas / Пришла весна / (1946)
024. The Milky Wall / Подкидыш / (1946)
025. Trap Happy / Охота на мышей / (1946)
026. Solid Serenade / Шумная серенада / (1946)
027. Cat Fishin' / Том и Джерри на рыбалке / (1947)
028. Part Time Pal / Перемирие / (1947)
029. The Cat Concerto / Концерт для кота с оркестром! / (1947)
030. Dr. Jekyll And Mr. Mouse / Доктор Джекел и мистер Мышь / (1947)
031. Salt Water Tabby / Приключения на пляже / (1947)
032. A Mouse In The House / Если в доме завелись мыши / (1947)
033. The Invisible Mouse / Мышонок-невидимка / (1947)
034. Kitty Foiled / Надо друга выручать / (1948)
035. The Truce Hurts / Мирный договор / (1948)
036. Old Rockin' Chair Tom / Старый, добрый Том / (1948)
037. Professor Tom / Том-учитель / (1948)
Доп. информация:
1. Кошак и мышь от бати в качестве Ultimate
2. фильм закодирован нестандартной матрицей квантования, возможны артефакты на стационарных DVD плеерах.
Ссылка на предыдущие и альтернативные раздачи: http:///*spam*//forum/tracker.php?nm=Tom+Jerry+Golden+Collection
Семпл: http://multi-up.com/1016692
Качество: BDRip (Исходник BDRemux)
Формат: AVI
Видео: 720x528 (1.36:1), 23.976 fps, XviD build 65, 2370 kbps avg, 0.26 bit/pixel
Аудио: 48 kHz, AC3 Dolby Digital, 2/0 (L,R) ch, 224 kbps
Субтитры: нет

Подробные технические данные

ОбщееПолное имя : E:\Том и Джерри. Золотая коллекция 1\001. Puss Gets the Boot (1940).aviФормат : AVIФормат/Информация : Audio Video InterleaveРазмер файла : 172 МбайтПродолжительность : 9 м. 13 с.Общий поток : 2604 Кбит/секПрограмма кодирования : VirtualDubMod 1.5.10.3 | www.virtualdub-fr.org || (build 2550/release)Библиотека кодирования : VirtualDubMod build 2550/release
ВидеоИдентификатор : 0Формат : MPEG-4 VisualПрофиль формата : Advanced Simple@L5Параметр BVOP формата : 1Параметр QPel формата : НетПараметр GMC формата : Без точки переходаПараметр матрицы формата : ВыборочнаяИдентификатор кодека : XVIDИдентификатор кодека/Подсказка : XviDПродолжительность : 9 м. 13 с.Битрейт : 2371 Кбит/секШирина : 720 пикселейВысота : 528 пикселейСоотношение сторон : 4:3Частота кадров : 23,976 кадра/секЦветовое пространство : YUVСубдискретизация насыщенности : 4:2:0Битовая глубина : 8 битТип развёртки : ПрогрессивнаяМетод сжатия : С потерямиБит/(Пиксели*Кадры) : 0.260Размер потока : 156 Мбайт (91%)Библиотека кодирования : XviD 65
АудиоИдентификатор : 1Формат : AC-3Формат/Информация : Audio Coding 3Расширение режима : CM (complete main)Параметр Endianness формата : BigИдентификатор кодека : 2000Продолжительность : 9 м. 13 с.Вид битрейта : ПостоянныйБитрейт : 224 Кбит/секКаналы : 2 каналаРасположение каналов : Front: L RЧастота : 48,0 КГцБитовая глубина : 16 битМетод сжатия : С потерямиРазмер потока : 14,8 Мбайт (9%)Выравнивание : Разделение по промежуткамПродолжительность промежутка : 42 мс. (1,00 видеокадр)Время предзагрузки промежутка : 500 мс.
Вне форума [Профиль] [ЛС]
Похожие темы
Форум Тема Автор Торрент Отв. Посл. сообщение
./templates/default/images/folder_dl.gif Обучающее видео Сергей Брежнев | Мастер-класс по работе с цветом и тонировке (2014) PCRec (H.264) Omen
1 | 0

0 | 1961

49

2014-10-19 12:32
Omen Последнее
Показать сообщения:    
Ответить на тему

Текущее время: Сегодня 08:45

Часовой пояс: GMT + 3



Вы не можете начинать темы
Вы не можете отвечать на сообщения
Вы не можете редактировать свои сообщения
Вы не можете удалять свои сообщения
Вы не можете голосовать в опросах
Вы не можете прикреплять файлы к сообщениям
Вы не можете скачивать файлы