Today is a free download without charge Download

[Profileschool] Алексей Шадрин | Управление визуальным объемом и резкостью изображений (2014) PCRec

Reply to topic
 
Author
Message

Omen ®

Longevity: 6 years 5 months

Posts: 171875

Торрент-статистика

Post 14-Nov-2014 15:38

[Quote]

[Profileschool] Алексей Шадрин
Управление визуальным объемом и резкостью изображений
- Автор (режиссер): [Profileschool] Алексей Шадрин
Жанр: Обучающее видео
Продолжительность: 04:00:43+04:32:14
Качество видео: PCRec
Видеокодек: (H.263)
Битрейт видео: ~141kbps
Размер кадра: 1600x912
Аудиокодек: AAC
Битрейт аудио: 87kbps
Описание:
Каждый, кто работает с фотографией, хорошо знает, что «плоско» звучит как приговор картинке и вашим изобразительным усилиям.
Что нужно для того, чтобы фотоизображение вызывало у зрителя яркую иллюзию глубины пространства? Какой обработке оно должно подвергнуться? Как добиться бритвенной резкости картинки, не лишив ее визуального объема? На эти и многие другие вопросы отвечает Алексей Шадрин — эксперт в сфере визуализации и физиолог зрения.
На двухдневном онлайн семинаре вы познакомитесь с основными законами зрительного восприятия глубины пространства, ее визуальными факторами и методикой управления ими в изображениях; обсудите современные научные подходы к такому управлению, а также программное обеспечение, наиболее подходящее к решению столь непростой задачи; рассмотрите типичные ошибки и неудачи, возникающие на этом пути. Богатый иллюстративный материал поможет закрепить полученные знания.

МедиаИнфо:

General
Complete name : G:\Алексей Шадрин - Управление визуальным объемом и резкостью изображений (2014)\Видео. День 1.mp4
Format : MPEG-4
Format profile : Base Media
Codec ID : isom
File size : 401 MiB
Duration : 4h 0mn
Overall bit rate mode : Variable
Overall bit rate : 233 Kbps
Writing application : AVM.EXE
Video
ID : 1
Format : MPEG-4 Visual
Format profile : Simple@L1
Format settings, BVOP : No
Format settings, QPel : No
Format settings, GMC : No warppoints
Format settings, Matrix : Default (H.263)
Codec ID : 20
Duration : 4h 0mn
Bit rate : 141 Kbps
Width : 1 600 pixels
Height : 912 pixels
Display aspect ratio : 16:9
Frame rate mode : Constant
Frame rate : 10.000 fps
Color space : YUV
Chroma subsampling : 4:2:0
Bit depth : 8 bits
Scan type : Progressive
Compression mode : Lossy
Bits/(Pixel*Frame) : 0.010
Stream size : 243 MiB (61%)
Writing library : Lavc52.72.2
Audio
ID : 2
Format : AAC
Format/Info : Advanced Audio Codec
Format profile : LC
Codec ID : 40
Duration : 4h 0mn
Bit rate mode : Variable
Bit rate : 88.0 Kbps
Channel count : 2 channels
Channel positions : Front: L R
Sampling rate : 44.1 KHz
Compression mode : Lossy
Stream size : 151 MiB (38%)
Скриншоты:
       
Other forum [Profile] [PM]
Similar theme
Forum Topic Author Torrent Replies Last Post
./templates/default/images/folder_dl.gif Обучающее видео [Profileschool] Дмитрий Шатров | Жанровая съемка в путешествии (2015) PCRec Omen
1 | 0

0 | 1604

37

2015-04-06 16:23
Omen Latest
./templates/default/images/folder_dl.gif Обучающее видео [profileschool] Adobe Photoshop. Продвинутый уровень [2014, RUS] Omen
1 | 0

0 | 1183

26

2015-12-20 15:32
Omen Latest
Display posts from previous:    
Reply to topic

The time now is: Today 22:21

All times are GMT + 3 Hours



You cannot post new topics in this forum
You cannot reply to topics in this forum
You cannot edit your posts in this forum
You cannot delete your posts in this forum
You cannot vote in polls in this forum
You cannot attach files in this forum
You cannot download files in this forum