Сегодня идет свободное скачивание без начисления Download

[Profileschool] Алексей Шадрин | Управление визуальным объемом и резкостью изображений (2014) PCRec

Ответить на тему
 
Автор
Сообщение

Omen ®

Стаж: 6 лет

Сообщений: 184329

Торрент-статистика

Пост 14-Ноя-2014 15:38

[Цитировать]

[Profileschool] Алексей Шадрин
Управление визуальным объемом и резкостью изображений
- Автор (режиссер): [Profileschool] Алексей Шадрин
Жанр: Обучающее видео
Продолжительность: 04:00:43+04:32:14
Качество видео: PCRec
Видеокодек: (H.263)
Битрейт видео: ~141kbps
Размер кадра: 1600x912
Аудиокодек: AAC
Битрейт аудио: 87kbps
Описание:
Каждый, кто работает с фотографией, хорошо знает, что «плоско» звучит как приговор картинке и вашим изобразительным усилиям.
Что нужно для того, чтобы фотоизображение вызывало у зрителя яркую иллюзию глубины пространства? Какой обработке оно должно подвергнуться? Как добиться бритвенной резкости картинки, не лишив ее визуального объема? На эти и многие другие вопросы отвечает Алексей Шадрин — эксперт в сфере визуализации и физиолог зрения.
На двухдневном онлайн семинаре вы познакомитесь с основными законами зрительного восприятия глубины пространства, ее визуальными факторами и методикой управления ими в изображениях; обсудите современные научные подходы к такому управлению, а также программное обеспечение, наиболее подходящее к решению столь непростой задачи; рассмотрите типичные ошибки и неудачи, возникающие на этом пути. Богатый иллюстративный материал поможет закрепить полученные знания.

МедиаИнфо:

General
Complete name : G:\Алексей Шадрин - Управление визуальным объемом и резкостью изображений (2014)\Видео. День 1.mp4
Format : MPEG-4
Format profile : Base Media
Codec ID : isom
File size : 401 MiB
Duration : 4h 0mn
Overall bit rate mode : Variable
Overall bit rate : 233 Kbps
Writing application : AVM.EXE
Video
ID : 1
Format : MPEG-4 Visual
Format profile : Simple@L1
Format settings, BVOP : No
Format settings, QPel : No
Format settings, GMC : No warppoints
Format settings, Matrix : Default (H.263)
Codec ID : 20
Duration : 4h 0mn
Bit rate : 141 Kbps
Width : 1 600 pixels
Height : 912 pixels
Display aspect ratio : 16:9
Frame rate mode : Constant
Frame rate : 10.000 fps
Color space : YUV
Chroma subsampling : 4:2:0
Bit depth : 8 bits
Scan type : Progressive
Compression mode : Lossy
Bits/(Pixel*Frame) : 0.010
Stream size : 243 MiB (61%)
Writing library : Lavc52.72.2
Audio
ID : 2
Format : AAC
Format/Info : Advanced Audio Codec
Format profile : LC
Codec ID : 40
Duration : 4h 0mn
Bit rate mode : Variable
Bit rate : 88.0 Kbps
Channel count : 2 channels
Channel positions : Front: L R
Sampling rate : 44.1 KHz
Compression mode : Lossy
Stream size : 151 MiB (38%)
Скриншоты:
       
Вне форума [Профиль] [ЛС]
Похожие темы
Форум Тема Автор Торрент Отв. Посл. сообщение
./templates/default/images/folder_dl.gif Обучающее видео [Profileschool] Александр Чалдрян | 3D LUT Creator. Следуй за белым кроликом (2014) PCRec Omen
2 | 0

0 | 3337

78

2014-10-29 13:07
Omen Последнее
./templates/default/images/folder_dl.gif Обучающее видео [Profileschool] Алексей Фурсов | Введение в предметную съемку (2014) PCRec Omen
1 | 0

0 | 2417

81

2014-11-06 19:19
Omen Последнее
./templates/default/images/folder_dl.gif Обучающее видео [Profileschool] Алексей Шадрин | Калибровка принтера: от А до Я (2015) PCRec Omen
2 | 0

0 | 1778

79

2015-03-25 21:19
Omen Последнее
./templates/default/images/folder_dl.gif Обучающее видео [profileschool] Adobe Photoshop. Базовый уровень [2014, RUS] Omen
1 | 0

0 | 1042

5

2015-12-20 03:00
Omen Последнее
./templates/default/images/folder_dl.gif Обучающее видео [profileschool] Adobe Photoshop. Продвинутый уровень [2014, RUS] Omen
1 | 0

0 | 825

26

2015-12-20 15:32
Omen Последнее
Показать сообщения:    
Ответить на тему

Текущее время: Сегодня 14:13

Часовой пояс: GMT + 3



Вы не можете начинать темы
Вы не можете отвечать на сообщения
Вы не можете редактировать свои сообщения
Вы не можете удалять свои сообщения
Вы не можете голосовать в опросах
Вы не можете прикреплять файлы к сообщениям
Вы не можете скачивать файлы