Сегодня идет свободное скачивание без начисления Download

[Profileschool] Алексей Фурсов | Введение в предметную съемку (2014) PCRec

Ответить на тему
 
Автор
Сообщение

Omen ®

Стаж: 6 лет 2 месяца

Сообщений: 184293

Торрент-статистика

Пост 06-Ноя-2014 19:19

[Цитировать]

[Profileschool] Алексей Фурсов
Введение в предметную съемку
- Автор (режиссер): Алексей Фурсов
Жанр: Обучающее видео
Продолжительность: 03:59:45
Качество видео: PCRec
Видеокодек: MPEG-4
Битрейт видео: ~578kbps
Размер кадра: 1440x912
Аудиокодек: AAC
Битрейт аудио: 142kbps
Описание:
Данный онлайн мастер-класс станет для вас пригласительным билетом в эту область фотографии. Вы наглядно увидите все те инструменты, при помощи которых производится предметная съемка, получите представление о нюансах выбора оборудования в зависимости от ваших задач. Вы сможете убедиться, что при наличии понимания принципов работы со светом сделать замечательный снимок можно с любым оборудованием и даже без него!

MediaInfo:

General
Complete name : H:\tutorials\profileschool.ru\Алексей Фурсов - Введение в предметную съемку (2014)\Видео.mp4
Format : MPEG-4
Format profile : Base Media
Codec ID : isom
File size : 1.22 GiB
Duration : 3h 59mn
Overall bit rate mode : Variable
Overall bit rate : 726 Kbps
Writing application : AVM.EXE
Video
ID : 1
Format : MPEG-4 Visual
Format profile : Simple@L1
Format settings, BVOP : No
Format settings, QPel : No
Format settings, GMC : No warppoints
Format settings, Matrix : Default (H.263)
Codec ID : 20
Duration : 3h 59mn
Bit rate : 579 Kbps
Width : 1 440 pixels
Height : 912 pixels
Display aspect ratio : 16:10
Frame rate mode : Variable
Frame rate : 25.000 fps
Minimum frame rate : 12.500 fps
Maximum frame rate : 25.000 fps
Color space : YUV
Chroma subsampling : 4:2:0
Bit depth : 8 bits
Scan type : Progressive
Compression mode : Lossy
Bits/(Pixel*Frame) : 0.018
Stream size : 992 MiB (80%)
Writing library : Lavc52.72.2
Audio
ID : 2
Format : AAC
Format/Info : Advanced Audio Codec
Format profile : LC
Codec ID : 40
Duration : 3h 59mn
Bit rate mode : Variable
Bit rate : 144 Kbps
Channel count : 2 channels
Channel positions : Front: L R
Sampling rate : 44.1 KHz
Compression mode : Lossy
Stream size : 245 MiB (20%)
Скриншоты:
       
Вне форума [Профиль] [ЛС]
Похожие темы
Форум Тема Автор Торрент Отв. Посл. сообщение
./templates/default/images/folder_dl.gif Обучающее видео [Profileschool] Алексей Шадрин | Фундаментальная цветокоррекция фотографических изображений (2014) PCRec Omen
1 | 0

0 | 3041

97

2015-01-07 14:53
Omen Последнее
./templates/default/images/folder_dl.gif Обучающее видео [Profileschool] Алексей Шадрин | Калибровка принтера: от А до Я (2015) PCRec Omen
1 | 0

0 | 1952

87

2015-03-25 21:19
Omen Последнее
./templates/default/images/folder_dl.gif Обучающее видео [Profileschool] Дмитрий Шатров | Жанровая съемка в путешествии (2015) PCRec Omen
1 | 0

0 | 1438

36

2015-04-06 16:23
Omen Последнее
./templates/default/images/folder_dl.gif Обучающее видео [Profileschool] Алексей Шадрин | Секреты современного искусства - Марк Шагал (2015) PCRec Omen
1 | 0

0 | 1455

34

2015-04-06 16:23
Omen Последнее
./templates/default/images/folder_dl.gif Обучающее видео [Profileschool] Коммерческая ретушь [2015, RUS] Omen
1 | 0

0 | 1986

27

2015-08-15 15:00
Omen Последнее
./templates/default/images/folder_dl.gif Обучающее видео [Profileschool] | Секреты цветокоррекции слайдов и негативов (2015) PCRec [H.264/1080p] Omen
1 | 0

0 | 1483

27

2015-08-19 13:10
Omen Последнее
./templates/default/images/folder_dl.gif Обучающее видео [Profileschool] Я и фотолаборатория: правила взаимоотношений [2015, RUS] Omen
1 | 0

0 | 976

11

2015-09-26 00:00
Omen Последнее
./templates/default/images/folder_dl.gif Обучающее видео [Profileschool] Мастер-класс: Маски. Практика применения [2013, RUS] Omen
1 | 0

0 | 1506

12

2015-10-05 18:53
Omen Последнее
./templates/default/images/folder_dl.gif Обучающее видео [profileschool] Adobe Photoshop. Продвинутый уровень [2014, RUS] Omen
1 | 0

0 | 961

26

2015-12-20 15:32
Omen Последнее
Показать сообщения:    
Ответить на тему

Текущее время: Сегодня 00:55

Часовой пояс: GMT + 3



Вы не можете начинать темы
Вы не можете отвечать на сообщения
Вы не можете редактировать свои сообщения
Вы не можете удалять свои сообщения
Вы не можете голосовать в опросах
Вы не можете прикреплять файлы к сообщениям
Вы не можете скачивать файлы