Today is a free download without charge Download

[Profileschool] Алексей Фурсов | Введение в предметную съемку (2014) PCRec

Reply to topic
 
Author
Message

Omen ®

Longevity: 6 years 5 months

Posts: 171875

Торрент-статистика

Post 06-Nov-2014 19:19

[Quote]

[Profileschool] Алексей Фурсов
Введение в предметную съемку
- Автор (режиссер): Алексей Фурсов
Жанр: Обучающее видео
Продолжительность: 03:59:45
Качество видео: PCRec
Видеокодек: MPEG-4
Битрейт видео: ~578kbps
Размер кадра: 1440x912
Аудиокодек: AAC
Битрейт аудио: 142kbps
Описание:
Данный онлайн мастер-класс станет для вас пригласительным билетом в эту область фотографии. Вы наглядно увидите все те инструменты, при помощи которых производится предметная съемка, получите представление о нюансах выбора оборудования в зависимости от ваших задач. Вы сможете убедиться, что при наличии понимания принципов работы со светом сделать замечательный снимок можно с любым оборудованием и даже без него!

MediaInfo:

General
Complete name : H:\tutorials\profileschool.ru\Алексей Фурсов - Введение в предметную съемку (2014)\Видео.mp4
Format : MPEG-4
Format profile : Base Media
Codec ID : isom
File size : 1.22 GiB
Duration : 3h 59mn
Overall bit rate mode : Variable
Overall bit rate : 726 Kbps
Writing application : AVM.EXE
Video
ID : 1
Format : MPEG-4 Visual
Format profile : Simple@L1
Format settings, BVOP : No
Format settings, QPel : No
Format settings, GMC : No warppoints
Format settings, Matrix : Default (H.263)
Codec ID : 20
Duration : 3h 59mn
Bit rate : 579 Kbps
Width : 1 440 pixels
Height : 912 pixels
Display aspect ratio : 16:10
Frame rate mode : Variable
Frame rate : 25.000 fps
Minimum frame rate : 12.500 fps
Maximum frame rate : 25.000 fps
Color space : YUV
Chroma subsampling : 4:2:0
Bit depth : 8 bits
Scan type : Progressive
Compression mode : Lossy
Bits/(Pixel*Frame) : 0.018
Stream size : 992 MiB (80%)
Writing library : Lavc52.72.2
Audio
ID : 2
Format : AAC
Format/Info : Advanced Audio Codec
Format profile : LC
Codec ID : 40
Duration : 3h 59mn
Bit rate mode : Variable
Bit rate : 144 Kbps
Channel count : 2 channels
Channel positions : Front: L R
Sampling rate : 44.1 KHz
Compression mode : Lossy
Stream size : 245 MiB (20%)
Скриншоты:
       
Other forum [Profile] [PM]
Similar theme
Forum Topic Author Torrent Replies Last Post
./templates/default/images/folder_dl.gif Обучающее видео [Profileschool] Алексей Шадрин | Управление визуальным объемом и резкостью изображений (2014) PCRec Omen
1 | 0

0 | 3156

133

2014-11-14 15:38
Omen Latest
./templates/default/images/folder_dl.gif Обучающее видео [Profileschool] Дмитрий Шатров | Жанровая съемка в путешествии (2015) PCRec Omen
1 | 0

0 | 1604

37

2015-04-06 16:23
Omen Latest
./templates/default/images/folder_dl.gif Обучающее видео [profileschool] Adobe Photoshop. Продвинутый уровень [2014, RUS] Omen
1 | 0

0 | 1183

26

2015-12-20 15:32
Omen Latest
Display posts from previous:    
Reply to topic

The time now is: Today 22:22

All times are GMT + 3 Hours



You cannot post new topics in this forum
You cannot reply to topics in this forum
You cannot edit your posts in this forum
You cannot delete your posts in this forum
You cannot vote in polls in this forum
You cannot attach files in this forum
You cannot download files in this forum