Today is a free download without charge Download

(Surf, Flamenco) [CD] Ben Woods - Surf Flamingo - 2014, FLAC (image+.cue), lossless

Reply to topic
 
Author
Message

Omen ®

Longevity: 7 years 1 month

Posts: 181090

Торрент-статистика

Post 24-Oct-2014 02:00

[Quote]

Ben Woods
Surf Flamingo
-- Жанр: Surf, Flamenco
Носитель: CD
Страна-производитель диска: USA
Год издания: 2014
Аудиокодек: FLAC (*.flac)
Тип рипа: image+.cue
Битрейт аудио: lossless
Продолжительность: 39:08
Источник (релизер): ©СЁРФ-Маrаtones aka izia1956
Наличие сканов в содержимом раздачи: да--

01. Penetration (2:30)
02. Walk Don't Run (2:35)
03. Sleepwalk (3:44)
04. Miserlou (2:46)
05. Ectasy of Gold (4:53)
06. Batman-Wipeout (1:54)
07. Surfriders (3:11)
08. Western Territory (2:27)
09. Tide Ripper (2:52)
10. Good Bad Ugly (3:04)
11. Pipeline (3:39)
12. Miner's Despair (3:10)
13. Mr. Moto (1:57)
--

Лог создания рипа

Exact Audio Copy V1.0 beta 3 from 29. August 2011
Отчёт EAC об извлечении, выполненном 4. октября 2014, 15:09
Ben Woods / Surf Flamingo
Дисковод: PLEXTOR DVDR PX-880SA Adapter: 1 ID: 0
Режим чтения : ДостоверностьИспользование точного потока : ДаОтключение кэша аудио : ДаИспользование указателей C2 : Нет
Коррекция смещения при чтении : 6Способность читать области Lead-in и Lead-out : НетЗаполнение пропущенных сэмплов тишиной : ДаУдаление блоков с тишиной в начале и конце : НетПри вычислениях CRC использовались нулевые сэмплы : ДаИнтерфейс : Установленный внешний ASPI-интерфейс
Выходной формат : Пользовательский кодировщикВыбранный битрейт : 1024 kBit/sКачество : ВысокийДобавление ID3-тега : НетУтилита сжатия : C:\Program Files\Exact Audio Copy\FLAC\FLAC.EXEДополнительные параметры : -10 -V -T "ARTIST=%artist%" -T "ALBUM=%albumtitle%" -T "DATE=%year%" -T "GENRE=%genre%" -T "COMMENT=ripped by izia1956" %source%
TOC извлечённого CD
Трек | Старт | Длительность | Начальный сектор | Конечный сектор --------------------------------------------------------------------- 1 | 0:00.00 | 2:32.04 | 0 | 11403 2 | 2:32.04 | 2:36.72 | 11404 | 23175 3 | 5:09.01 | 3:46.39 | 23176 | 40164 4 | 8:55.40 | 2:48.18 | 40165 | 52782 5 | 11:43.58 | 4:54.62 | 52783 | 74894 6 | 16:38.45 | 1:56.38 | 74895 | 83632 7 | 18:35.08 | 3:12.54 | 83633 | 98086 8 | 21:47.62 | 2:29.18 | 98087 | 109279 9 | 24:17.05 | 2:54.39 | 109280 | 122368 10 | 27:11.44 | 3:06.25 | 122369 | 136343 11 | 30:17.69 | 3:40.67 | 136344 | 152910 12 | 33:58.61 | 3:12.16 | 152911 | 167326 13 | 37:11.02 | 1:57.46 | 167327 | 176147
Характеристики диапазона извлечения и сообщения об ошибках
Выбранный диапазон
Имя файла D:\BitComet\Ben Woods - Surf Flamingo(2014)(flac)\Ben Woods - Surf Flamingo.wav
Пиковый уровень 100.0 % Скорость извлечения 8.5 X Качество диапазона 100.0 % CRC теста 94DE60AF CRC копии 94DE60AF Копирование... OK
Ошибок не произошло
AccurateRip: сводка
Трек 1 отсутствует в базе данныхТрек 2 отсутствует в базе данныхТрек 3 отсутствует в базе данныхТрек 4 отсутствует в базе данныхТрек 5 отсутствует в базе данныхТрек 6 отсутствует в базе данныхТрек 7 отсутствует в базе данныхТрек 8 отсутствует в базе данныхТрек 9 отсутствует в базе данныхТрек 10 отсутствует в базе данныхТрек 11 отсутствует в базе данныхТрек 12 отсутствует в базе данныхТрек 13 отсутствует в базе данных
Ни одного трека нет в базе AccurateRip
Конец отчёта
==== Контрольная сумма отчёта E730FFD2814D960F8522A05389A2A2D31285A18A67970123EC9DEB42B4D47C13 ====

Содержание индексной карты (.CUE)

REM GENRE Surf/FlamencoREM DATE 2014REM DISCID 87092C0DREM COMMENT "ExactAudioCopy v1.0b3"PERFORMER "Ben Woods"TITLE "Surf Flamingo"FILE "Ben Woods - Surf Flamingo.flac" WAVE TRACK 01 AUDIO TITLE "Penetration" PERFORMER "Ben Woods" INDEX 01 00:00:00 TRACK 02 AUDIO TITLE "Walk Don't Run" PERFORMER "Ben Woods" INDEX 01 02:32:04 TRACK 03 AUDIO TITLE "Sleepwalk" PERFORMER "Ben Woods" INDEX 01 05:09:01 TRACK 04 AUDIO TITLE "Miserlou" PERFORMER "Ben Woods" INDEX 01 08:55:40 TRACK 05 AUDIO TITLE "Ecstasy of Gold" PERFORMER "Ben Woods" INDEX 01 11:43:58 TRACK 06 AUDIO TITLE "Batman-Wipeout" PERFORMER "Ben Woods" INDEX 01 16:38:45 TRACK 07 AUDIO TITLE "Surfriders" PERFORMER "Ben Woods" INDEX 01 18:35:08 TRACK 08 AUDIO TITLE "Western Territory" PERFORMER "Ben Woods" INDEX 01 21:47:62 TRACK 09 AUDIO TITLE "Tide Ripper" PERFORMER "Ben Woods" INDEX 01 24:17:05 TRACK 10 AUDIO TITLE "Good Bad Ugly" PERFORMER "Ben Woods" INDEX 01 27:11:44 TRACK 11 AUDIO TITLE "Pipeline" PERFORMER "Ben Woods" INDEX 01 30:17:69 TRACK 12 AUDIO TITLE "Miner's Despair" PERFORMER "Ben Woods" INDEX 01 33:58:61 TRACK 13 AUDIO TITLE "Mr. Moto" PERFORMER "Ben Woods" INDEX 01 37:11:02

Об исполнителе (группе)

American Surf Classics and Spaghetti Western scores all interpreted through the Flamenco guitar and instrumentaion. Imagine the Ventures jamming with the Gispy Kings.
Доп. информация: Рип сделан собственноручно.
Сканы в папке.
Ознакомиться (прослушать) можно здесь
Рип от ©СЁРФ-Маrаtones aka izia1956
Other forum [Profile] [PM]
Display posts from previous:    
Reply to topic

The time now is: Today 21:35

All times are GMT + 3 Hours



You cannot post new topics in this forum
You cannot reply to topics in this forum
You cannot edit your posts in this forum
You cannot delete your posts in this forum
You cannot vote in polls in this forum
You cannot attach files in this forum
You cannot download files in this forum