Сегодня идет свободное скачивание без начисления Download

Губка Боб Квадратные Штаны / SpongeBob SquarePants / Сезон: 9 / Серии: 1ab, 7ab (Стивен Хилленбург / Stephen Hillenburg) [2012, Мультипликация, SATRip] Dub

Ответить на тему
 
Автор
Сообщение

Omen ®

Стаж: 5 лет

Сообщений: 190529

Торрент-статистика

Пост 20-Окт-2014 14:00

[Цитировать]

Губка Боб Квадратные Штаны. 9 сезон. 1, 7 серии
Страна: США
Жанр: Мультипликация
Продолжительность: 00:11:51
Год выпуска: 2012
Перевод: Профессиональный (дублированный)
Русские субтитры: нет
Режиссёр: Стивен Хилленбург / Stephen Hillenburg
Описание: Кто проживает на дне океана? Спанч Боб Сквэр Пэнтс! Или просто Губка Боб квадратные штаны. Этот мультсериал был снят в студии Никелодеон и появился на экранах в 1999 году и сразу завоевал свое место под солнцем. На данный момент я думаю нет такого человека который бы не знал кто такой Губка Боб. На глубине океана существует город под названием Бикини Боттом там и происходит все действие. Умом губку само собой аниматоры и сценаристы наделять и не думали, живет себе так и живет.
Дополнительная информация: Записано сегодня с телеканала Nickelodeon.
Качество: SATRip
Формат: AVI
Видео: XVID, 720x400, 25 fps, 1700 kbps, 0.235 bit/pixel
Аудио: MP3, 48 kHz, 2 ch, 192 kbps, CBR
Субтитры: отсутствуют
Сэмпл

Внимание! Раздача ведётся путём добавления новых серий

Внимание! Раздача ведётся путём добавления новых серий; при каждом добавлении создаётся новый торрент. Чтобы начать докачку новой серии, пользователям необходимо сделать следующее:
(1) остановить скачивание,
(2) удалить старый торрент у себя из клиента (старые серии удалять не надо),
(3) скачать новый торрент и запустить его у себя в клиенте вместо старого, при этом указать клиенту путь в старую папку куда и должно происходить скачивание новых серий.
Ваш клиент при этом должен произвести хеширование (проверку) старой папки (если не производит сам - помогите ему сделать это), и будет докачивать только те серии которых у вас ещё нет. Старые серии при этом не удаляются, а продолжают раздаваться!
Eсли вы уже удалили старые серии, то предотвратить повторную закачку старых серий можно, сняв галочку в соответствующих местах при запуске нового торрента. По возможности, желательно не удалять старые серии как можно дольше чтобы релизёр не столько продолжал раздавать старые серии, а смог сконцентрироваться на новых.

Список серий

S09E01a - Exstreme Sports / Экстремальные поры
В Бикини Боттом приезжают спортсмены экстремалы из команды Дрэстикалс. Спанч Боб и Патрик заворожённые их невероятными трюками, пытаются сделать всё возможное, чтобы присоединиться к ним. Правда понятия наших друзей об экстриме немного отличаются от общепринятых...
S09E01b - Squirrel Record / Беличьи рекорды
Белка Сэнди говорит Спанч Бобу, что хочет побить все достижения из книги невероятных рекордов и просит помочь ей. Губка конечно же соглашается. В его обязанности входит фиксировать рекорды, чтобы потом можно было предоставить доказательства.
S09E07ab - It Came From Goo Lagoon / Она пришла из Лагуны Гу
Огромный пузырь пришел в Лагуну Гу и стал пугать всех. Все в панике кроме Планктона.

Подробные технические данные

GeneralComplete name : D:\S09E01a_Exstreme_Sports.aviFormat : AVIFormat/Info : Audio Video InterleaveFile size : 161 MiBDuration : 11mn 51sOverall bit rate : 1 896 KbpsWriting library : VirtualDub build 32507/release
VideoID : 0Format : MPEG-4 VisualFormat profile : Advanced Simple@L5Format settings, BVOP : 2Format settings, QPel : NoFormat settings, GMC : No warppointsFormat settings, Matrix : Default (H.263)Codec ID : XVIDCodec ID/Hint : XviDDuration : 11mn 51sBit rate : 1 694 KbpsWidth : 720 pixelsHeight : 400 pixelsDisplay aspect ratio : 16:9Frame rate : 25.000 fpsColor space : YUVChroma subsampling : 4:2:0Bit depth : 8 bitsScan type : ProgressiveCompression mode : LossyBits/(Pixel*Frame) : 0.235Stream size : 144 MiB (89%)Writing library : XviD 64
AudioID : 1Format : MPEG AudioFormat version : Version 1Format profile : Layer 3Mode : Joint stereoMode extension : MS StereoCodec ID : 55Codec ID/Hint : MP3Duration : 11mn 51sBit rate mode : ConstantBit rate : 192 KbpsChannel(s) : 2 channelsSampling rate : 48.0 KHzCompression mode : LossyStream size : 16.3 MiB (10%)Alignment : Split accross interleavesInterleave, duration : 40 ms (1.00 video frame)Interleave, preload duration : 500 ms

Скриншоты

Вне форума [Профиль] [ЛС]
Показать сообщения:    
Ответить на тему

Текущее время: Сегодня 14:14

Часовой пояс: GMT + 3



Вы не можете начинать темы
Вы не можете отвечать на сообщения
Вы не можете редактировать свои сообщения
Вы не можете удалять свои сообщения
Вы не можете голосовать в опросах
Вы не можете прикреплять файлы к сообщениям
Вы не можете скачивать файлы