Today is a free download without charge Download

Внеземное эхо / Earth to Echo (Дэйв Грин/Dave Green)[2014.,Фантастика, приключения, семейный] HDRip [576p] iPad

Reply to topic
 
Author
Message

sashau ®

Gender:

Longevity: 8 years

Posts: 3497

Торрент-статистика

Post 20-Oct-2014 13:10

[Quote]

Внеземное эхо / Earth to Echo
«No one will ever believe our story»
- Год выпуска: 2014
Производство: США
Жанр: Фантастика, приключения, семейный
Продолжительность: 01:31:15
Перевод: Любительский (двухголосый закадровый) (Сладкая парочка)
Оригинальная аудиодорожка: Есть
Режиссер: Дэйв Грин
Сценарий: Генри Гайден, Эндрю Панай
Продюсер: Райан Кэвэна, Эндрю Панай, Адам Блум
Оператор: Максим Александр
Композитор: Джозеф Трапанезе
Художник: Касра Фарахани, Ричард Блум, Джудианна Маковски
Монтаж: Карстен Курпанек, Криспин Стразерс
Актеры: Тео Хальм, Астро, Риз Хартвиг, Элла Валестедт, Джейсон Грей-Стенфорд, Algee Smith, Кассиус Клэй, Соня Лесли, Керри О’Мэлли, Вирджиния Луиз Смит
Бюджет: $13 000 000
Сборы в США: $38 889 642
Сборы в мире: + $6 401 862 = $45 291 504
Мировая премьера: 14 июня 2014

Описание: Лучшие друзья Таск, Манч и Алекс начали получать странные закодированные послания на свои мобильные телефоны. Они убеждены, что это что-то да значит, но родители и власти не воспринимают их всерьез. Они решаются взломать код и следуют к источнику посланий. То, с чем они сталкиваются, не из нашего мира и оно нуждается в помощи.-Качество исходника: BDRip 1080p
Качество: HDRip
Тип: SD (576p)
Контейнер: M4V
Видео: H.264, 1024x576, 16:9, 2 200 Kbps, 23.976 fps
Аудио 1: Русский/Любительский (двухголосый закадровый) , AAC / 2.0 / 124 Kbps / 48.0 KHz
Аудио 2: Английский/Оригинальная дорожка , AAC / 2.0 / 129 Kbps / 48.0 KHz-

iTunes Meta Tags

Код:
Media Type: Movie
Sort Name: Earth to Echo
XID: Apple:vendor_id:2014-688713
Content ID: 915871210
Copyright: © 2014 RML Echo Films, LLC All Rights Reserved
ScreenWriters: Генри Гайден, Эндрю Панай
Producers: Райан Кэвэна, Эндрю Панай, Адам Блум
Director: Дэйв Грин
Cast: Тео Хальм, Астро, Риз Хартвиг, Элла Валестедт, Джейсон Грей-Стенфорд, Algee Smith, Кассиус Клэй, Соня Лесли, Керри О’Мэлли, Вирджиния Луиз Смит
Rating: PG
Long Description: Лучшие друзья Таск, Манч и Алекс начали получать странные закодированные послания на свои мобильные телефоны. Они убеждены, что это что-то да значит, но родители и власти не воспринимают их всерьез. Они решаются взломать код и следуют к источнику посланий. То, с чем они сталкиваются, не из нашего мира и оно нуждается в помощи.
Description: Лучшие друзья Таск, Манч и Алекс начали получать странные закодированные послания на свои мобильные телефоны.
Release Date: 2014-06-14T08:00:00Z
Genre: Action & Adventure
Artist: Dave Green
Name: Earth to Echo

MediaInfo

Код:
General
Complete name                            : C:\\Handbrake\\Earth.to.(SD).(pk).m4v
Format                                   : MPEG-4
Codec ID                                 : M4V
File size                                : 1.56 GiB
Duration                                 : 1h 31mn
Overall bit rate mode                    : Variable
Overall bit rate                         : 2 454 Kbps
Movie name                               : Earth to Echo
Performer                                : Dave Green
Genre                                    : Action & Adventure
ContentType                              : Short Film
Description                              : Лучшие друзья Таск, Манч и Алекс начали получать странные закодированные послания на свои мобильные телефоны.
Recorded date                            : UTC 2014-06-14 08:00:00
Encoded date                             : UTC 2014-10-20 08:55:05
Tagged date                              : UTC 2014-10-20 08:56:02
Writing application                      : MkvToMp4 [www.mkvtomp4.ru] version 0.222
Copyright                                : © 2014 RML Echo Films, LLC All Rights Reserved
Service name                             : AOL
Cover                                    : Yes
Title/Sort                               : Earth to Echo
LongDescription                          : Лучшие друзья Таск, Манч и Алекс начали получать странные закодированные послания на свои мобильные телефоны. Они убеждены, что это что-то да значит, но родители и власти не воспринимают их всерьез. Они решаются взломать код и следуют к источнику посланий. То, с чем они сталкиваются, не из нашего мира и оно нуждается в помощи.
AppleStoreAccountType                    : AOL
AppleStoreCountry                        : Unknown Country
AppleStoreCatalogID                      : 915871210
Vendor                                   : Apple:vendor_id:2014-688713
ContentRating                            : mpaa|PG|200|
iTunMOVI                                 :  /  /  /   /   cast /    /     /     name /     Тео Хальм /     /     /     name /     Астро /     /     /     name /     Риз Хартвиг /     /     /     name /     Элла Валестедт /     /     /     name /     Джейсон Грей-Стенфорд /     /     /     name /     Algee Smith /     /     /     name /     Кассиус Клэй /     /     /     name /     Соня Лесли /     /     /     name /     Керри О’Мэлли /     /     /     name /     Вирджиния Луиз Смит /     /    /   directors /    /     /     name /     Дэйв Грин /     /    /   producers /    /     /     name /     Райан Кэвэна /     /     /     name /     Эндрю Панай /     /     /     name /     Адам Блум /     /    /   screenwriters /    /     /     name /     Генри Гайден /     /     /     name /     Эндрю Панай /     /    /   /
Video
ID                                       : 1
Format                                   : AVC
Format/Info                              : Advanced Video Codec
Format profile                           : [url=mailto:High@L4.0]High@L4.0[/url]
Format settings, CABAC                   : Yes
Format settings, ReFrames                : 9 frames
Codec ID                                 : avc1
Codec ID/Info                            : Advanced Video Coding
Duration                                 : 1h 31mn
Bit rate                                 : 2 200 Kbps
Maximum bit rate                         : 11.6 Mbps
Width                                    : 1 024 pixels
Height                                   : 576 pixels
Display aspect ratio                     : 16:9
Frame rate mode                          : Variable
Frame rate                               : 23.976 fps
Minimum frame rate                       : 23.810 fps
Maximum frame rate                       : 24.272 fps
Color space                              : YUV
Chroma subsampling                       : 4:2:0
Bit depth                                : 8 bits
Scan type                                : Progressive
Bits/(Pixel*Frame)                       : 0.156
Stream size                              : 1.40 GiB (89%)
Writing library                          : x264 core 130 r2273 b3065e6
Encoding settings                        : cabac=1 / ref=9 / deblock=1:0:0 / analyse=0x3:0x113 / me=umh / subme=9 / psy=1 / psy_rd=1.00:0.00 / mixed_ref=1 / me_range=32 / chroma_me=1 / trellis=1 / 8x8dct=1 / cqm=0 / deadzone=21,11 / fast_pskip=1 / chroma_qp_offset=-2 / threads=12 / lookahead_threads=1 / sliced_threads=0 / nr=0 / decimate=1 / interlaced=0 / bluray_compat=0 / constrained_intra=0 / bframes=6 / b_pyramid=2 / b_adapt=2 / b_bias=0 / direct=1 / weightb=1 / open_gop=0 / weightp=2 / keyint=240 / keyint_min=24 / scenecut=40 / intra_refresh=0 / rc_lookahead=40 / rc=2pass / mbtree=1 / bitrate=2200 / ratetol=1.0 / qcomp=0.60 / qpmin=0 / qpmax=69 / qpstep=4 / cplxblur=20.0 / qblur=0.5 / ip_ratio=1.40 / aq=1:1.00
Language                                 : English
Encoded date                             : UTC 2014-10-20 08:55:05
Tagged date                              : UTC 2014-10-20 08:55:32
Color primaries                          : BT.709
Transfer characteristics                 : BT.709
Matrix coefficients                      : BT.709
Audio #1
ID                                       : 2
Format                                   : AAC
Format/Info                              : Advanced Audio Codec
Format profile                           : LC
Codec ID                                 : 40
Duration                                 : 1h 31mn
Bit rate mode                            : Variable
Bit rate                                 : 124 Kbps
Maximum bit rate                         : 204 Kbps
Channel(s)                               : 2 channels
Channel positions                        : Front: L R
Sampling rate                            : 48.0 KHz
Compression mode                         : Lossy
Stream size                              : 81.1 MiB (5%)
Language                                 : Russian
Encoded date                             : UTC 2014-10-20 08:55:30
Tagged date                              : UTC 2014-10-20 08:55:32
Audio #2
ID                                       : 3
Format                                   : AAC
Format/Info                              : Advanced Audio Codec
Format profile                           : LC
Codec ID                                 : 40
Duration                                 : 1h 31mn
Bit rate mode                            : Variable
Bit rate                                 : 129 Kbps
Maximum bit rate                         : 229 Kbps
Channel(s)                               : 2 channels
Channel positions                        : Front: L R
Sampling rate                            : 48.0 KHz
Compression mode                         : Lossy
Stream size                              : 84.0 MiB (5%)
Language                                 : English
Encoded date                             : UTC 2014-10-20 08:55:31
Tagged date                              : UTC 2014-10-20 08:55:32
Menu
ID                                       : 4
Codec ID                                 : text
Duration                                 : 1h 31mn
Encoded date                             : UTC 2014-10-20 08:55:58
Tagged date                              : UTC 2014-10-20 08:55:58
Bit rate mode                            : VBR

x264 лог

Код:
x264 [info]: frame I:797   Avg QP:15.48  size: 66119  PSNR Mean Y:49.08 U:51.07 V:52.58 Avg:49.73 Global:48.60
x264 [info]: frame P:40351 Avg QP:18.53  size: 19511  PSNR Mean Y:46.96 U:49.25 V:50.86 Avg:47.66 Global:46.76
x264 [info]: frame B:90132 Avg QP:19.97  size:  7339  PSNR Mean Y:46.29 U:49.42 V:51.08 Avg:47.11 Global:45.98
x264 [info]: consecutive B-frames:  7.6%  8.4% 12.9% 35.0% 16.8% 15.2%  4.1%
x264 [info]: mb I  I16..4: 17.6% 62.5% 19.9%
x264 [info]: mb P  I16..4:  4.2% 14.4%  2.6%  P16..4: 38.1% 17.7% 10.7%  0.0%  0.0%    skip:12.3%
x264 [info]: mb B  I16..4:  0.4%  1.7%  0.4%  B16..8: 39.8%  8.1%  1.9%  direct: 4.8%  skip:42.8%  L0:43.9% L1:49.7% BI: 6.3%
x264 [info]: 8x8 transform intra:67.5% inter:75.3%
x264 [info]: coded y,uvDC,uvAC intra: 71.2% 72.9% 39.7% inter: 24.0% 25.2% 3.4%
x264 [info]: i16 v,h,dc,p: 33% 16%  7% 44%
x264 [info]: i8 v,h,dc,ddl,ddr,vr,hd,vl,hu:  8%  8%  4% 10% 15% 14% 15% 12% 14%
x264 [info]: i4 v,h,dc,ddl,ddr,vr,hd,vl,hu:  8%  9%  3%  9% 16% 15% 16% 11% 14%
x264 [info]: i8c dc,h,v,p: 39% 27% 18% 16%
x264 [info]: Weighted P-Frames: Y:3.1% UV:1.5%
x264 [info]: ref P L0: 55.5% 11.0% 13.3%  5.7%  4.2%  3.4%  2.8%  1.8%  1.7%  0.5%  0.0%
x264 [info]: ref B L0: 77.2% 10.4%  5.0%  2.6%  1.9%  1.6%  1.0%  0.4%
x264 [info]: ref B L1: 93.4%  6.6%
x264 [info]: SSIM Mean Y:0.9844576 (18.085db)
x264 [info]: PSNR Mean Y:46.514 U:49.373 V:51.020 Avg:47.291 Global:46.215 kb/s:2193.72
Скриншоты:            -

Релиз подготовлен для просмотра на Apple TV, iPad, iPhone, iPod Touch.
Для просмотра данного релиза на компьютере с ОС Windows рекомендуется использовать VLC media player
Other forum [Profile] [PM]
Display posts from previous:    
Reply to topic

The time now is: Today 18:53

All times are GMT + 3 Hours



You cannot post new topics in this forum
You cannot reply to topics in this forum
You cannot edit your posts in this forum
You cannot delete your posts in this forum
You cannot vote in polls in this forum
You cannot attach files in this forum
You cannot download files in this forum