Сегодня идет свободное скачивание без начисления Download

Мужики! (Искра Бабич) [1981 г., драма, DVD5]

Ответить на тему
 
Автор
Сообщение

Omen ®

Стаж: 5 лет 6 месяцев

Сообщений: 186946

Торрент-статистика

Пост 26-Янв-2012 13:00

[Цитировать]

Мужики! -
Русское название: Мужики!
Год выпуска: 1982 (СССР)
Жанр: Драма
Перевод: Оригинал
Субтитры: Отсутствуют
Премьера: 18 января 1982
Зрители: 38.4 млн
Релиз на DVD: 1 апреля 2011, «Парадиз Видео»-Описание фильма:
Узнав о том, что умерла его бывшая невеста, шахтер Павел Зубов приезжает в родное село. У него на руках оказываются оставшиеся сиротами трое детей. Старшая дочь — его, Павла. Осознание ответственности перед нею приводит Павла к мужественному решению: он становится отцом всем троим детям.
(Лучший фильм по опросу журнала «Советский экран» в 1983 году.)
-Режиссер: Искра Бабич
Актеры: Александр Михайлов, Петр Глебов, Вера Альховская, Ирина Иванова, Михаил Бузылёв-Крэцо, Александр Павлов, Анатолий Солоницын, Мария Андрианова, Светлана Тормахова, Леонард Варфоломеев-Продолжительность: 01:32:11- -Качество видео: DVD5
Видеокодек: MPEG-2
Битрейт видео: ~5500 Кбит/сек, 25,000 кадров/сек
Размер кадра: PAL 4:3, 720 х 576
Аудиокодек: AC3
Битрейт аудио: 192 Кбит/сек, 2 канала, 48,0 КГц, 16 бит-

MediaInfo

Код:
Общее
Полное имя : D:\Фильмы\Muzhiki\VIDEO_TS\VTS_02_1.VOB
Формат : MPEG-PS
Размер файла : 1024 Мбайт
Продолжительность : 24 м.
Общий поток : 5809 Кбит/сек
Видео
Идентификатор : 224 (0xE0)
Формат : MPEG Video
Версия формата : Version 2
Профиль формата : Main@Main
Параметр BVOP формата : Да
Параметр матрицы формата : Выборочная
Параметр GOP формата : M=3, N=12
Продолжительность : 24 м.
Битрейт : 5500 Кбит/сек
Ширина : 720 пикселей
Высота : 576 пикселей
Соотношение сторон : 4:3
Частота кадров : 25,000 кадров/сек
Стандарт вещания : PAL
Цветовое пространство : YUV
Субдискретизация насыщенности : 4:2:0
Битовая глубина : 8 бит
Тип развёртки : Чересстрочная
Порядок развёртки : Верхнее поле первое
Метод сжатия : С потерями
Бит/(Пиксели*Кадры) : 0.530
Размер потока : 970 Мбайт (95%)
Аудио
Идентификатор : 189 (0xBD)-128 (0x80)
Формат : AC-3
Формат/Информация : Audio Coding 3
Расширение режима : CM (complete main)
Режим смешивания : DVD-Video
Продолжительность : 24 м.
Вид битрейта : Постоянный
Битрейт : 192 Кбит/сек
Каналы : 2 канала
Расположение каналов : Front: L R
Частота : 48,0 КГц
Битовая глубина : 16 бит
Метод сжатия : С потерями
Задержка видео : -80 мс.
Размер потока : 33,8 Мбайт (3%)
-

DVDInfo

Код:
Title: Muzhiki
Size: 3.82 Gb ( 4 006 840,00 KBytes ) - DVD-5
Enabled regions: 1, 2, 3, 4, 5, 6, 7, 8
VTS_01 :
  Play Length: 00:00:40
  Video: PAL 4:3 (720x576) VBR
VTS_02 :
  Play Length: 01:32:11
  Video: PAL 4:3 (720x576) VBR
  Audio:
      English, AC3, 2/0 (L,R) ch, 192 kbps, Delay 0 mSec
Audio #1: AC3, 2/0 (L,R) ch, 192 kbps, Delay 0 mSec
-Скриншоты:
           
-

Еще скриншоты

           
Вне форума [Профиль] [ЛС]
Показать сообщения:    
Ответить на тему

Текущее время: Сегодня 16:53

Часовой пояс: GMT + 3



Вы не можете начинать темы
Вы не можете отвечать на сообщения
Вы не можете редактировать свои сообщения
Вы не можете удалять свои сообщения
Вы не можете голосовать в опросах
Вы не можете прикреплять файлы к сообщениям
Вы не можете скачивать файлы