Сегодня идет свободное скачивание без начисления Download

Симпсоны / The Simpsons / Сезон: 26 / Серии: 1-2 (??) (Мэтт Гроунинг / Matt Groening) [2014, Приключения, комедия, сатира, WEB-DL 720p] 2xMVO (Nice-Media, VO-Production) + Original + Subs (Rus, Eng)

Ответить на тему
 
Автор
Сообщение

Omen ®

Стаж: 5 лет

Сообщений: 190530

Торрент-статистика

Пост 18-Окт-2014 23:02

[Цитировать]

Симпсоны / The Simpsons -Год выпуска: 2014
Страна: США
Жанр: Приключения, комедия, сатира
Продолжительность: ~22 минуты (серия)
Перевод:
  • Профессиональный (многоголосый закадровый) Nice-Media [Mirohaha, L0cDoG, Marvel, Milla, Nika Kartman, Пётр "Гланц" Иващенко, Инна Королёва, Little, Света, SerGoLeOne, Михаил Кшиштовский, Олег Варганов, Uncle Michael, Rumble, Строев Денис (Dexter), Ancord, yuraflash, darkFIL, Rise, annakie],
  • Профессиональный (многоголосый закадровый) VO-Production
-Производство: FOX
Режиссёр: Мэтт Гроунинг / Matt Groening-Роли озвучивали: Дэн Кастелланета, Джули Кавнер, Нэнси Картрайт, Ярдли Смит, Гарри Ширер, Хэнк Азария, Памела Хейден, Тресс МакНилл, Карл Видерготт, Мэгги Росвэлл и др.-Описание: Симпсоны живут в вымышленном городе Спрингфилд, со своим обществом и историей. Гомер - отец семейства, который дает плохие советы и работает инспектором безопасности на атомной электростанции; Мардж - любящая мать и жена, старается сохранить спокойствие в семье; Барт - 10 летний хулиган; Лиза - философский 8-летний ребенок; и Мэгги - младенец, который общается посредством соски.-РЕЛИЗ ОТ: V.SERIJ2013-Качество: WEB-DL 720p
Формат: MKV
Видео кодек: h264
Аудио кодек: AC3
Видео: MPEG4 Video (H264) 1280x720, 23.976fps, ~3Mbps, 0.149 bit/pixel
Аудио:
  • русская [Nice-Media]: Dolby AC3 48000Hz stereo 192Kbps,
    русская [VO-Production]: Dolby AC3 48000Hz stereo 192Kbps,
  • английская: Dolby AC3 48000Hz 6ch 384Kbps
Субтитры: Русские [Notabenoid], английские
-Сэмпл \ Все раздачи мультсериала \ 16 сезон (BDRip 720p)- -

Список серий

26 сезон (2014 год):
01. Clown in the Dumps
02. The Wreck of the Relationship

Media Info

Код:
General
UniqueID                         : 237310827246338312689548511989516825385 (0xB28867200133DAF28B7D175AAB557329)
Complete name                    : F:\Мои документы\Вадим\Моё видео (Вадим)\HD\Animated Series (HD)\The Simpsons (HD)\The Simpsons Season 26 (WEB-DL 720p)\01. Clown in the Dumps.mkv
Format                           : Matroska
File size                        : 630 MiB
Duration                         : 21mn 12s
Overall bit rate                 : 4 153 Kbps
Movie name                       : The Simpsons Season 26 (WEB-DL | 720p | v.serij2013)
Encoded date                     : UTC 2014-10-17 21:20:53
Writing application              : mkvmerge v5.8.0 ('No Sleep / Pillow') built on Sep  2 2012 15:37:04
Writing library                  : libebml v1.2.3 + libmatroska v1.3.0
Video
ID                               : 1
Format                           : AVC
Format/Info                      : Advanced Video Codec
Format profile                   : High@L3.1
Format settings, CABAC           : No
Format settings, ReFrames        : 2 frames
Codec ID                         : V_MPEG4/ISO/AVC
Duration                         : 21mn 12s
Bit rate mode                    : Variable
Bit rate                         : 3 303 Kbps
Width                            : 1 280 pixels
Height                           : 720 pixels
Display aspect ratio             : 16:9
Frame rate                       : 23.976 fps
Color space                      : YUV
Chroma subsampling               : 4:2:0
Bit depth                        : 8 bits
Scan type                        : Progressive
Bits/(Pixel*Frame)               : 0.149
Stream size                      : 501 MiB (80%)
Language                         : English
Color primaries                  : BT.709-5, BT.1361, IEC 61966-2-4, SMPTE RP177
Transfer characteristics         : BT.709-5, BT.1361
Matrix coefficients              : BT.709-5, BT.1361, IEC 61966-2-4 709, SMPTE RP177
Audio #1
ID                               : 2
Format                           : AC-3
Format/Info                      : Audio Coding 3
Mode extension                   : CM (complete main)
Codec ID                         : A_AC3
Duration                         : 21mn 12s
Bit rate mode                    : Constant
Bit rate                         : 192 Kbps
Channel(s)                       : 2 channels
Channel positions                : Front: L R
Sampling rate                    : 48.0 KHz
Bit depth                        : 16 bits
Compression mode                 : Lossy
Stream size                      : 29.1 MiB (5%)
Title                            : MVO (Nice-Media)
Language                         : Russian
Audio #2
ID                               : 3
Format                           : AC-3
Format/Info                      : Audio Coding 3
Mode extension                   : CM (complete main)
Codec ID                         : A_AC3
Duration                         : 21mn 12s
Bit rate mode                    : Constant
Bit rate                         : 192 Kbps
Channel(s)                       : 2 channels
Channel positions                : Front: L R
Sampling rate                    : 48.0 KHz
Bit depth                        : 16 bits
Compression mode                 : Lossy
Stream size                      : 29.1 MiB (5%)
Title                            : MVO (VO-Production)
Language                         : Russian
Audio #3
ID                               : 4
Format                           : AC-3
Format/Info                      : Audio Coding 3
Mode extension                   : CM (complete main)
Codec ID                         : A_AC3
Duration                         : 21mn 12s
Bit rate mode                    : Constant
Bit rate                         : 384 Kbps
Channel(s)                       : 6 channels
Channel positions                : Front: L C R, Side: L R, LFE
Sampling rate                    : 48.0 KHz
Bit depth                        : 16 bits
Compression mode                 : Lossy
Stream size                      : 58.2 MiB (9%)
Title                            : Original
Language                         : English
Text #1
ID                               : 5
Format                           : UTF-8
Codec ID                         : S_TEXT/UTF8
Codec ID/Info                    : UTF-8 Plain Text
Title                            : Notabenoid
Language                         : Russian
Text #2
ID                               : 6
Format                           : UTF-8
Codec ID                         : S_TEXT/UTF8
Codec ID/Info                    : UTF-8 Plain Text
Title                            : Original
Language                         : English
[/spoiler]
-
Вне форума [Профиль] [ЛС]
Показать сообщения:    
Ответить на тему

Текущее время: Сегодня 20:50

Часовой пояс: GMT + 3



Вы не можете начинать темы
Вы не можете отвечать на сообщения
Вы не можете редактировать свои сообщения
Вы не можете удалять свои сообщения
Вы не можете голосовать в опросах
Вы не можете прикреплять файлы к сообщениям
Вы не можете скачивать файлы