Сегодня идет свободное скачивание без начисления Download

Том и Джерри. Детское шоу / Том и Джерри. Детские годы / Том и Джерри в детстве / Tom & Jerry Kids Show [Сезон: 1 / Серии: 04-06,08,09,12 из 21 / Сезон: 2 / Серии: 01-03,08,10,12,13,15-17,20, 22,24-26,31,32,34 из ???] [1990-91, VHS] AVO(Кузнецов]

Ответить на тему
 
Автор
Сообщение

Omen ®

Стаж: 4 года 10 месяцев

Сообщений: 190643

Торрент-статистика

Пост 17-Окт-2014 14:00

[Цитировать]

Том и Джерри. Детское шоу / Том и Джерри. Детские годы / Том и Джерри в детстве / Tom & Jerry Kids Show
Страна: США
Жанр: Анимация
Продолжительность: Приблизительно 6-8 минут одна серия
Год выпуска: 1990-1991
Перевод: Авторский (одноголосый закадровый) Сергей Кузнецов
Русские субтитры: нет
Режиссёр: Рэй Паттерсон, Роберт Альварез, Дон Ласк
Роли озвучивали: Чарльз Адлер
Пэт Фрэли
Тереза Ганзел
Ричард Готье
Дон Мессик
Фрэнк Уэлкер
Патрик Л. Зиммерман
Брайан Каммингс
Соррел Бук
С. Скотт Баллок
Описание: Мультсериал, рассказывающий о приключениях Тома и Джерри в детстве. Премьера состоялось на канале FOX 8 сентября 1990 года, и продолжающиеся до 2 октября 1993 года. Позднее мультфильм транслировался многими каналами по всему миру и много раз переиздавался на VHS и DVD. Мультсериал «Том и Джерри в детстве» несколько подобен классическому «Тому и Джерри», но уровень насилия здесь показан в менее сильной форме. Кроме того, они не часто используют различные инструменты или оружие для нападения друг на друга, а вместо того просто преследуют друг друга. Как обычно, котёнок Том постоянно пытается поймать мышонка Джерри, часто вызывая много неудачных моментов. Также в сериале показаны приключения Спайка и Тайка, а также противостояние пса Друпи и его сына Дриппла со злющим волком МакВульфом. Также после выхода был показан на Fox Kids спин-офф мультсериала «Друпи-суперсыщик».
Список серий:
Том и Джерри. Детское шоу. 1990 (AVO, Сергей Кузнецов)
04. Отсутствие воспитания.mpg
05. Хищники.mpg
06. Изобретательный мышонок.mpg
08. Средневековый мышонок.mpg
09. Друппио и Джульета.mpg
12. Космические щенки.mpg
Том и Джерри. Детское шоу. 1991 (AVO, Сергей Кузнецов)
01. Цирковые трюки.mpg
02. Состязание.mpg
03. По голове не бить.mpg
08. Закулисная борьба.mpg
10. Кто ты, киска.mpg
12. Пиратский кот.mpg
13. Родительский день.mpg
15. Молниеносный.mpg
16. Амадей Маус.mpg
17. Мускулистый и Друппи на пляже.mpg
20. Друппи и привидение.mpg
22. Поймай мышонка.mpg
24. Сюрприз ко дню рождения.mpg
25. Клеокатра.mpg
26. Мистер Маквольфенштейн.mpg
31. Маленький придумщик.mpg
32. Крыса, которая любит рэп.mpg
34. Калифорнийские гонки.mpg
Доп. информация: Оцифровка VHS (личный архив) и получение VHSRip alenavova
Качество: VHSRip
Формат: MPG
Видео: MPEG2 Video 720x576 (4:3) 25fps
Аудио: MPEG Audio 48000Hz stereo 192kbps
Субтитры: отсутствуют

Подробные технические данные

Том и Джерри. Детское шоу. 1991 (AVO, Сергей Кузнецов)\01. Цирковые трюки.mpgFormat : MPEG-PSFile size : 353 MiBDuration : 7mn 49sOverall bit rate mode : VariableOverall bit rate : 6 305 KbpsWriting library : (c) 1998-2009 Womble Multimedia, Inc. / MPEG Video Wizard (03/2009) / Dec 9 2009
VideoID : 224 (0xE0)Format : MPEG VideoFormat version : Version 2Format profile : Main@MainFormat settings, BVOP : YesFormat settings, Matrix : CustomFormat settings, GOP : M=3, N=15Duration : 7mn 49sBit rate mode : VariableBit rate : 6 000 KbpsWidth : 720 pixelsHeight : 576 pixelsDisplay aspect ratio : 4:3Frame rate : 25.000 fpsStandard : PALColor space : YUVChroma subsampling : 4:2:0Bit depth : 8 bitsScan type : ProgressiveCompression mode : LossyBits/(Pixel*Frame) : 0.579Time code of first frame : 00:00:00:00Time code source : Group of pictures headerStream size : 335 MiB (95%)Writing library : (c) 1998-2009 Womble Multimedia, Inc. / MPEG Video Wizard (03/2009) / Dec 9 2009
AudioID : 192 (0xC0)Format : MPEG AudioFormat version : Version 1Format profile : Layer 2Duration : 7mn 49sBit rate mode : ConstantBit rate : 192 KbpsChannel(s) : 2 channelsSampling rate : 48.0 KHzCompression mode : LossyDelay relative to video : -80msStream size : 10.7 MiB (3%)
Menu

Скриншоты




Вне форума [Профиль] [ЛС]
Похожие темы
Форум Тема Автор Торрент Отв. Посл. сообщение
./templates/default/images/folder_dl.gif Мультфильмы Том и Джерри: Робин Гуд и Мышь-Весельчак / Tom and Jerry: Robin Hood and His Merry Mouse (Спайк Брандт / Spike Brandt, Тони Червоне / Tony Cervone) [2012, США, мультфильм, семейный, BDRemux 1080p] Omen
1 | 0

0 | 693

6

2012-11-22 10:07
Omen Последнее
./templates/default/images/folder_dl.gif Обучающее видео Сергей Брежнев | Мастер-класс по работе с цветом и тонировке (2014) PCRec (H.264) Omen
1 | 0

0 | 1959

49

2014-10-19 12:32
Omen Последнее
Показать сообщения:    
Ответить на тему

Текущее время: Сегодня 11:50

Часовой пояс: GMT + 3



Вы не можете начинать темы
Вы не можете отвечать на сообщения
Вы не можете редактировать свои сообщения
Вы не можете удалять свои сообщения
Вы не можете голосовать в опросах
Вы не можете прикреплять файлы к сообщениям
Вы не можете скачивать файлы