Сегодня идет свободное скачивание без начисления Download

Сыновья уходят в бой (Виктор Туров) [1969 г., драма, военное кино, TVRip]

Ответить на тему
 
Автор
Сообщение

Omen ®

Стаж: 5 лет 10 месяцев

Сообщений: 184329

Торрент-статистика

Пост 25-Янв-2012 20:38

[Цитировать]

Сыновья уходят в бой - Русское название: Сыновья уходят в бой
Год выпуска: 1969
Страна: СССР
Жанр: Военный, Драма
-Описание фильма:
Второй фильм дилогии, снятой по мотивам романа Алеся Адамовича. Продолжение рассказа о самоотверженной белорусской семье - Анне Корзун и ее сыновьях. Продолжая главное дело своей жизни - служение Родине и борьбу против фашизма, они уходят на фронт, чтобы там, на передовой, защищать страну, каждая пядь которая - их родной Дом. Эта простая женщина и ее сыновья и есть та легендарная мощь, которая сокрушила фашистов, силой своего духа... Для фильма, как и для первой части - Война под крышами, Владимиром Высоцким было написано несколько песен.-Режиссер: Виктор Туров-Актеры: Нина Ургант, Светлана Суховей, Ольга Лысенко, Станислав Чуркин, Константин Григорьев, Юрий Горобец, Дмитрий Капка, Александр Захаров, Владимир Мартынов, Александра Климова, Мария Капнист, Мария Захаревич, Владимир Белокуров, Бронюс Бабкаускасс, Владимир Поночевный, Ауримас Бабкаускас, Казимирас Виткус, Виктор Плют, Феликс Эйнас, Леонид Крюк, Валерий Ольшанский, Валерий Зубарев, Геннадий Овсянников-Продолжительность: 01:33:50- -Видеокодек: Xvid
Битрейт видео: ~1883 Кбит/с
Размер кадра: 688x512
Качество видео: TVRip
Аудиокодек: MP3, 2ch
Битрейт аудио: 192 Кбит/с
-

mediainfo

Код:
Общее
Полное имя                       : E:\подготовка релизов\Sinovja.uhodjat.v.boy.avi
Формат                           : AVI
Формат/Информация                : Audio Video Interleave
Размер файла                     : 1,37 Гбайт
Продолжительность                : 1 ч. 33 м.
Общий поток                      : 2085 Кбит/сек
Программа кодирования            : VirtualDubModRus 1.5.10.2 (build 2542/release)
Библиотека кодирования           : VirtualDubMod build 2542/release
Видео
Идентификатор                    : 0
Формат                           : MPEG-4 Visual
Профиль формата                  : Advanced Simple@L5
Параметр BVOP формата            : 2
Параметр QPel формата            : Нет
Параметр GMC формата             : Без точки перехода
Параметр матрицы формата         : Default (MPEG)
Режим смешивания                 : Сжатый битовый поток
Идентификатор кодека             : XVID
Идентификатор кодека/Подсказка   : XviD
Продолжительность                : 1 ч. 33 м.
Битрейт                          : 1883 Кбит/сек
Ширина                           : 688 пикселей
Высота                           : 512 пикселей
Соотношение сторон               : 4:3
Частота кадров                   : 25,000 кадров/сек
Цветовое пространство            : YUV
Субдискретизация насыщенности    : 4:2:0
Битовая глубина                  : 8 бит
Тип развёртки                    : Прогрессивная
Метод сжатия                     : С потерями
Бит/(Пиксели*Кадры)              : 0.214
Размер потока                    : 1,23 Гбайт (90%)
Библиотека кодирования           : XviD 1.2.1 (UTC 2008-12-04)
Аудио
Идентификатор                    : 1
Формат                           : MPEG Audio
Версия формата                   : Version 1
Профиль формата                  : Layer 3
Идентификатор кодека             : 55
Идентификатор кодека/Подсказка   : MP3
Продолжительность                : 1 ч. 33 м.
Вид битрейта                     : Постоянный
Битрейт                          : 192 Кбит/сек
Каналы                           : 2 канала
Частота                          : 48,0 КГц
Метод сжатия                     : С потерями
Размер потока                    : 129 Мбайт (9%)
Выравнивание                     : Соединение по промежуткам
Продолжительность промежутка     : 40  мс. (1,00 видеокадр)
Время предзагрузки промежутка    : 504  мс.
Библиотека кодирования           : LAME3.97
Настройки программы              : -m s -V 4 -q 1 -b 192
-Скриншоты:
       
-Первый фильм дилогии - Война под крышами (1967) TVRip
Вне форума [Профиль] [ЛС]
Показать сообщения:    
Ответить на тему

Текущее время: Сегодня 05:18

Часовой пояс: GMT + 3



Вы не можете начинать темы
Вы не можете отвечать на сообщения
Вы не можете редактировать свои сообщения
Вы не можете удалять свои сообщения
Вы не можете голосовать в опросах
Вы не можете прикреплять файлы к сообщениям
Вы не можете скачивать файлы