Сегодня идет свободное скачивание без начисления Download

Гриффины / Family Guy / Сезон: 12 / Серии: 1-3, 5 из 22 (Сет МакФарлейн / Seth MacFarlane) [2013-2014, Комедия, Пародия, Сатира, SATRip] MVO

Ответить на тему
 
Автор
Сообщение

Omen ®

Стаж: 4 года 10 месяцев

Сообщений: 190643

Торрент-статистика

Пост 29-Сен-2014 08:56

[Цитировать]

Гриффины / Family Guy
Страна: США
Жанр: Комедия, Пародия, Сатира
Продолжительность: ~20 минут
Год выпуска: 2013-2014
Перевод: Профессиональный (многоголосый закадровый)
Русские субтитры: нет
Режиссёр: Сет МакФарлейн / Seth MacFarlane
Роли озвучивали: Олег Форостенко - Питер, Кливленд и другие.
Илья Хвостиков - Брайан, Стьюи, Куагмир и другие.
Людмила Ильина - все женские и детские роли.
Описание: "Гриффины" - анимационное ТВ-шоу, созданное Сетом МакФарлейном для телеканала FOX. Как нетрудно догадаться, главными героями шоу является семейка Гриффинов: тупой, но полный сумасшедших идей, составляющих львиную долю шуток сериала, отец семейства Питер; его любящая и терпеливая жена Лоис, всеми силами пытающаяся превратить Гриффинов в нормальную семью; их интеллектуально развитый не по годам, вынашивающий идею мирового господства младший сын Стьюи; дочь-ботаник, обречённая из-за этого на одиночество и непонимание как в школе так и дома, Мэг; и 13-ти летний отсталый в развитии лет на 10, сын Крис. Также полноценным членом семьи является пёс Брайан - склонный к меланхолии эстет, спокойно наблюдающий с бокалом вина в лапе над приключениями Питера и остальных членов семьи (и это при всём притом, что остальные собаки в сериале не являются очеловеченными).
Список серий:
01. Finders Keepers (Искатели сокровища)
02. Vestigial Peter (Рудиментарный Питер)
03. Quagmire's Quagmire (Куагмиру Куагмир)
04. A Fistful of Meg (Пригоршня для Мэг)
05. Boopa-Dee Bappa-Dee (Бупа-Ди Баппа-Ди)
Доп. информация: Представляю новый 12 сезон мультсериала "Гриффины" в переводе телеканала 2х2, вышедший на телеэкраны сразу же после окончания показа 11 сезона, что разумеется правильно, так как у остальных сериалов уже показаны все существующие на данный момент сезоны, в должниках остались только "Гриффины" В общем наслаждайтесь!
Качество: SATRip
Формат: AVI
Видео: Xvid, 720х576, 25.00fps, 1700 kbps
Аудио: MPEG Audio Layer 3, 48000Hz, stereo, 192 kbps
Субтитры: отсутствуют

Подробные технические данные

GeneralComplete name : C:\Documents and Settings\Admin\Мои документы\Гриффины 12\01. Finders Keepers.aviFormat : AVIFormat/Info : Audio Video InterleaveFile size : 243 MiBDuration : 20mn 2sOverall bit rate : 1 699 KbpsWriting application : Lavf52.61.0
VideoID : 0Format : MPEG-4 VisualFormat profile : Simple@L1Format settings, BVOP : NoFormat settings, QPel : NoFormat settings, GMC : No warppointsFormat settings, Matrix : Default (H.263)Codec ID : XVIDCodec ID/Hint : XviDDuration : 20mn 2sBit rate : 1 494 KbpsWidth : 720 pixelsHeight : 576 pixelsDisplay aspect ratio : 4:3Frame rate : 25.000 fpsStandard : PALColor space : YUVChroma subsampling : 4:2:0Bit depth : 8 bitsScan type : ProgressiveCompression mode : LossyBits/(Pixel*Frame) : 0.144Stream size : 214 MiB (88%)Writing library : Lavc52.66.0
AudioID : 1Format : MPEG AudioFormat version : Version 1Format profile : Layer 3Mode : Joint stereoMode extension : MS StereoCodec ID : 55Codec ID/Hint : MP3Duration : 20mn 2sBit rate mode : ConstantBit rate : 192 KbpsChannel(s) : 2 channelsSampling rate : 44.1 KHzCompression mode : LossyStream size : 27.5 MiB (11%)Alignment : Aligned on interleavesInterleave, duration : 26 ms (0.65 video frame)

Скриншоты



Вне форума [Профиль] [ЛС]
Показать сообщения:    
Ответить на тему

Текущее время: Сегодня 14:40

Часовой пояс: GMT + 3



Вы не можете начинать темы
Вы не можете отвечать на сообщения
Вы не можете редактировать свои сообщения
Вы не можете удалять свои сообщения
Вы не можете голосовать в опросах
Вы не можете прикреплять файлы к сообщениям
Вы не можете скачивать файлы