Сегодня идет свободное скачивание без начисления Download

[profileschool] Алексей Довгуля | Студийная съемка (2014) PCRec

Ответить на тему
 
Автор
Сообщение

Omen ®

Стаж: 5 лет 7 месяцев

Сообщений: 185412

Торрент-статистика

Пост 28-Сен-2014 20:05

[Цитировать]

[profileschool] Алексей Довгуля
Студийная съемка
- Автор (режиссер): profileschool
Жанр: Видеокурс
Преподаватель: Алексей Довгуля
Продолжительность: 11:42:55
Качество видео: PCRec
Видеокодек: MPEG-4 Part2: Visual
Битрейт видео: ~23.976fps 450kbps
Размер кадра: 1920x1024
Аудиокодек: AAC
Битрейт аудио: 44100Hz stereo 95kbps
Описание:
Курс по студийной съемке предназначен как для начинающих фотографов, так и для профессионалов работающих в студии, так как затрагивает все основные виды съемки. Курс нацелен не только на разбор световых схем, но и на понимание света как инструмента для создания собственного стиля съемки.
Курс дает устойчивую точку отсчета, которая позволяет работать с любыми источниками освещения, а также в нестандартных условиях. В курсе использовано много авторских наработок, которые позволят проявить свое творческое начало на любом уровне съемки.

Дополнительная информация:

Программа курса
Занятие 1. Базовые знания
* Объективы и камеры для студийной съемки
* Студийные приборы: постоянный и импульсный свет, моноблоки и генераторы
* Светоформирующие насадки и их использование
* Синхронизация
* Студийное пространство и фоны
* Настройка камеры
* Цветовая температура, серая карта
Занятие 2. Основные световые схемы
* Пошаговая настройка света
* Классический портрет
* Безтеневой портрет
* Портреты жестким светом
* Ростовые схемы света на светлом и темном фоне
* Каталожные ростовые схемы
Занятие 3. Beauty съемка
* Основные принципы Beauty съемки
* Съемка Clean Beauty
* Съемка Beauty в светлом и темном ключе
* Съемка жесткими светом
* Съемка мейкапа и ювелирных украшений на модели
Занятие 4. Fashion съемка
* Основные принципы Fashion съемки
* Модельные тесты
* Съемки для журналов
* Имиджевые съемки
* Съемки на выезде и в интерьере
Занятие 5. Креативные световые схемы
* Фоновые эффекты
* Эффекты смешанным светом
* Эффекты с проектором
* Использование подручных средств для создания эффектов

MI

Профиль формата : Base Media
Идентификатор кодека : isom
Размер файла : 580 Мбайт
Продолжительность : 2 ч. 27 м.
Режим общего битрейта : Переменный
Общий поток : 550 Кбит/сек
Программа кодирования : Lavf52.32.0
Видео
Идентификатор : 1
Формат : MPEG-4 Visual
Профиль формата : Simple@L1
Параметр BVOP формата : Нет
Параметр QPel формата : Нет
Параметр GMC формата : Без точки перехода
Параметр матрицы формата : Default (H.263)
Идентификатор кодека : 20
Продолжительность : 2 ч. 27 м.
Битрейт : 451 Кбит/сек
Ширина : 1920 пикселей
Высота : 1024 пикселя
Соотношение сторон : 1,85:1
Режим частоты кадров : Переменный
Частота кадров : 10,000 кадров/сек
Минимальная частота кадров : 7,992 кадров/сек
Максимальная частота кадров : 23,976 кадра/сек
Цветовое пространство : YUV
Субдискретизация насыщенности : 4:2:0
Битовая глубина : 8 бит
Тип развёртки : Прогрессивная
Метод сжатия : С потерями
Бит/(Пиксели*Кадры) : 0.023
Размер потока : 475 Мбайт (82%)
Библиотека кодирования : Lavc52.22.3
Аудио
Идентификатор : 2
Формат : AAC
Формат/Информация : Advanced Audio Codec
Профиль формата : LC
Идентификатор кодека : 40
Продолжительность : 2 ч. 27 м.
Вид битрейта : Переменный
Битрейт : 95,0 Кбит/сек
Каналы : 2 канала
Расположение каналов : Front: L R
Частота : 44,1 КГц
Метод сжатия : С потерями
Размер потока : 101 Мбайт (17%)
Скриншоты:
           
Вне форума [Профиль] [ЛС]
Похожие темы
Форум Тема Автор Торрент Отв. Посл. сообщение
./templates/default/images/folder_dl.gif Обучающее видео [Profileschool] Алексей Шадрин | Калибровка принтера: от А до Я (2015) PCRec Omen
1 | 0

0 | 1353

73

2015-03-25 21:19
Omen Последнее
Показать сообщения:    
Ответить на тему

Текущее время: Сегодня 08:34

Часовой пояс: GMT + 3



Вы не можете начинать темы
Вы не можете отвечать на сообщения
Вы не можете редактировать свои сообщения
Вы не можете удалять свои сообщения
Вы не можете голосовать в опросах
Вы не можете прикреплять файлы к сообщениям
Вы не можете скачивать файлы