Today is a free download without charge Download

[profileschool] Алексей Довгуля | Студийная съемка (2014) PCRec

Reply to topic
 
Author
Message

Omen ®

Longevity: 6 years 6 months

Posts: 181112

Торрент-статистика

Post 28-Sep-2014 20:05

[Quote]

[profileschool] Алексей Довгуля
Студийная съемка
- Автор (режиссер): profileschool
Жанр: Видеокурс
Преподаватель: Алексей Довгуля
Продолжительность: 11:42:55
Качество видео: PCRec
Видеокодек: MPEG-4 Part2: Visual
Битрейт видео: ~23.976fps 450kbps
Размер кадра: 1920x1024
Аудиокодек: AAC
Битрейт аудио: 44100Hz stereo 95kbps
Описание:
Курс по студийной съемке предназначен как для начинающих фотографов, так и для профессионалов работающих в студии, так как затрагивает все основные виды съемки. Курс нацелен не только на разбор световых схем, но и на понимание света как инструмента для создания собственного стиля съемки.
Курс дает устойчивую точку отсчета, которая позволяет работать с любыми источниками освещения, а также в нестандартных условиях. В курсе использовано много авторских наработок, которые позволят проявить свое творческое начало на любом уровне съемки.

Дополнительная информация:

Программа курса
Занятие 1. Базовые знания
* Объективы и камеры для студийной съемки
* Студийные приборы: постоянный и импульсный свет, моноблоки и генераторы
* Светоформирующие насадки и их использование
* Синхронизация
* Студийное пространство и фоны
* Настройка камеры
* Цветовая температура, серая карта
Занятие 2. Основные световые схемы
* Пошаговая настройка света
* Классический портрет
* Безтеневой портрет
* Портреты жестким светом
* Ростовые схемы света на светлом и темном фоне
* Каталожные ростовые схемы
Занятие 3. Beauty съемка
* Основные принципы Beauty съемки
* Съемка Clean Beauty
* Съемка Beauty в светлом и темном ключе
* Съемка жесткими светом
* Съемка мейкапа и ювелирных украшений на модели
Занятие 4. Fashion съемка
* Основные принципы Fashion съемки
* Модельные тесты
* Съемки для журналов
* Имиджевые съемки
* Съемки на выезде и в интерьере
Занятие 5. Креативные световые схемы
* Фоновые эффекты
* Эффекты смешанным светом
* Эффекты с проектором
* Использование подручных средств для создания эффектов

MI

Профиль формата : Base Media
Идентификатор кодека : isom
Размер файла : 580 Мбайт
Продолжительность : 2 ч. 27 м.
Режим общего битрейта : Переменный
Общий поток : 550 Кбит/сек
Программа кодирования : Lavf52.32.0
Видео
Идентификатор : 1
Формат : MPEG-4 Visual
Профиль формата : Simple@L1
Параметр BVOP формата : Нет
Параметр QPel формата : Нет
Параметр GMC формата : Без точки перехода
Параметр матрицы формата : Default (H.263)
Идентификатор кодека : 20
Продолжительность : 2 ч. 27 м.
Битрейт : 451 Кбит/сек
Ширина : 1920 пикселей
Высота : 1024 пикселя
Соотношение сторон : 1,85:1
Режим частоты кадров : Переменный
Частота кадров : 10,000 кадров/сек
Минимальная частота кадров : 7,992 кадров/сек
Максимальная частота кадров : 23,976 кадра/сек
Цветовое пространство : YUV
Субдискретизация насыщенности : 4:2:0
Битовая глубина : 8 бит
Тип развёртки : Прогрессивная
Метод сжатия : С потерями
Бит/(Пиксели*Кадры) : 0.023
Размер потока : 475 Мбайт (82%)
Библиотека кодирования : Lavc52.22.3
Аудио
Идентификатор : 2
Формат : AAC
Формат/Информация : Advanced Audio Codec
Профиль формата : LC
Идентификатор кодека : 40
Продолжительность : 2 ч. 27 м.
Вид битрейта : Переменный
Битрейт : 95,0 Кбит/сек
Каналы : 2 канала
Расположение каналов : Front: L R
Частота : 44,1 КГц
Метод сжатия : С потерями
Размер потока : 101 Мбайт (17%)
Скриншоты:
           
Other forum [Profile] [PM]
Similar theme
Forum Topic Author Torrent Replies Last Post
./templates/default/images/folder_dl.gif Обучающее видео [Profileschool] Алексей Шадрин | Секреты современного искусства - Марк Шагал (2015) PCRec Omen
1 | 0

0 | 1670

34

2015-04-06 16:23
Omen Latest
./templates/default/images/folder_dl.gif Обучающее видео [Profileschool] | Секреты цветокоррекции слайдов и негативов (2015) PCRec [H.264/1080p] Omen
1 | 0

0 | 1676

27

2015-08-19 13:10
Omen Latest
./templates/default/images/folder_dl.gif Обучающее видео [Profileschool] Я и фотолаборатория: правила взаимоотношений [2015, RUS] Omen
1 | 0

0 | 1121

12

2015-09-26 00:00
Omen Latest
./templates/default/images/folder_dl.gif Обучающее видео [Profileschool] Мастер-класс: Маски. Практика применения [2013, RUS] Omen
1 | 0

0 | 1719

14

2015-10-05 18:53
Omen Latest
./templates/default/images/folder_dl.gif Обучающее видео [Profileschool] Калибровка монитора от А до Я [2014, RUS] Omen
1 | 0

0 | 1389

9

2015-10-05 18:56
Omen Latest
./templates/default/images/folder_dl.gif Обучающее видео [profileschool] Adobe Photoshop. Продвинутый уровень [2014, RUS] Omen
1 | 0

0 | 1243

26

2015-12-20 15:32
Omen Latest
Display posts from previous:    
Reply to topic

The time now is: Today 02:46

All times are GMT + 3 Hours



You cannot post new topics in this forum
You cannot reply to topics in this forum
You cannot edit your posts in this forum
You cannot delete your posts in this forum
You cannot vote in polls in this forum
You cannot attach files in this forum
You cannot download files in this forum