Сегодня идет свободное скачивание без начисления Download

Конь БоДжек / BoJack Horseman (2014) WEBRip (Сезон 1, серии 1-12 из 12) (NewStudio) [18+]

Ответить на тему
 
Автор
Сообщение

Omen ®

Стаж: 5 лет

Сообщений: 190529

Торрент-статистика

Пост 18-Сен-2014 18:45

[Цитировать]

Конь БоДжек / BoJack Horseman- Страна: США
Год выпуска: 2014
Жанр: Комедия, для взрослых, ненормативная лексика
Перевод: Профессиональный многоголосый закадровый - NewStudio
Внимание! Присутствует ненормативная лексика!
Возрастное ограничение: 18+

Режиссер: Рафаэль Боб-Уоксберг
Роли озвучивали: Уилл Арнетт, Эми Седарис, Элисон Бри, Пол Ф. Томпкинс, Аарон Пол, Адам Коновер, Рэйчел Блум, Рафаэль Боб-Уоксберг, Майк Холлингсворт и др.
Описание:
Сюжет разворачивается вокруг коня по имени БоДжек, который хлещет виски, его бывшей возлюбленной и его друга-человека.
СЭМПЛ
Продолжительность: ~ 00:25:00 каждая серия
Качество видео: WEBRip
Формат: AVI
Видео: 720x400 (16:9), 23.976 fps, XviD ~1387 kbps, ~0.201 bit/pixel
Аудио: 48 kHz, MPEG Layer 3, 2 ch, 128 kbps CBR (Русский, закадровый)
Аудио: 48 kHz, MPEG Layer 3, 2 ch, 128 kbps CBR (Английский)
Релиз: NewStudio
Автор перевода: Юрий Башенкер, Александра Цернант, Григорий Сенин

Тех. данные (MI)

Общее
BoJack Horseman - Конь БоДжек. Сезон 1. NewStudio\Bojack.Horseman.s01e01.WEBRip.NewStudio.avi
Формат : AVI
Формат/Информация : Audio Video Interleave
Размер файла : 297 Мбайт
Продолжительность : 25 м.
Общий поток : 1657 Кбит/сек
Программа кодирования : VirtualDubModRus 1.5.10.2 (build 2542/release)
Библиотека кодирования : VirtualDubMod build 2542/release
Видео
Идентификатор : 0
Формат : MPEG-4 Visual
Профиль формата : Advanced Simple@L5
Параметр BVOP формата : 2
Параметр QPel формата : Нет
Параметр GMC формата : Без точки перехода
Параметр матрицы формата : Default (MPEG)
Идентификатор кодека : XVID
Идентификатор кодека/Подсказка : XviD
Продолжительность : 25 м.
Битрейт : 1387 Кбит/сек
Ширина : 720 пикселей
Высота : 400 пикселей
Соотношение сторон : 16:9
Частота кадров : 23,976 кадра/сек
Цветовое пространство : YUV
Субдискретизация насыщенности : 4:2:0
Битовая глубина : 8 бит
Тип развёртки : Прогрессивная
Метод сжатия : С потерями
Бит/(Пиксели*Кадры) : 0.201
Размер потока : 249 Мбайт (84%)
Библиотека кодирования : XviD 64
Аудио #1
Идентификатор : 1
Формат : MPEG Audio
Версия формата : Version 1
Профиль формата : Layer 3
Режим : Joint stereo
Расширение режима : MS Stereo
Идентификатор кодека : 55
Идентификатор кодека/Подсказка : MP3
Продолжительность : 25 м.
Вид битрейта : Постоянный
Битрейт : 128 Кбит/сек
Каналы : 2 канала
Частота : 48,0 КГц
Метод сжатия : С потерями
Размер потока : 23,0 Мбайт (8%)
Выравнивание : Соединение по промежуткам
Продолжительность промежутка : 42 мс. (1,00 видеокадр)
Время предзагрузки промежутка : 504 мс.
Аудио #2
Идентификатор : 2
Формат : MPEG Audio
Версия формата : Version 1
Профиль формата : Layer 3
Режим : Joint stereo
Расширение режима : MS Stereo
Идентификатор кодека : 55
Идентификатор кодека/Подсказка : MP3
Продолжительность : 25 м.
Вид битрейта : Постоянный
Битрейт : 128 Кбит/сек
Каналы : 2 канала
Частота : 48,0 КГц
Метод сжатия : С потерями
Размер потока : 23,0 Мбайт (8%)
Выравнивание : Соединение по промежуткам
Продолжительность промежутка : 42 мс. (1,00 видеокадр)
Время предзагрузки промежутка : 504 мс.

Список серий

01. Pilot / Пилот
02. BoJack Hates the Troops / БоДжек ненавидит военных
03. Prickly Muffin / Сладкуля
04. Zos and Zeldas / Зоуи и Зэльды
05. Live Fast, Die Nguyen
06. Our A-Story Is a 'D' Story
07. Say Anything / Скажи что-нибудь
08. The Telescope / Телескоп
09. Horse Majeure / Хорс-мажор
10. One Trick Pony / Я — маленькая лошадка
11. Downer Ending / Тупая концовка
12. Later / Отложить

Внимание! Раздача ведётся путём добавления новых серий

Внимание! Раздача ведётся путём добавления новых серий; при каждом добавлении создаётся новый торрент.
Чтобы начать докачку новой серии, пользователям необходимо сделать следующее:
1. Остановить скачивание;
2. Удалить старый торрент у себя из клиента (старые серии удалять не надо);
3. Скачать новый торрент и запустить его у себя в клиенте вместо старого, при этом указать клиенту путь в старую папку куда и должно происходить скачивание новых серий. Ваш клиент при этом должен произвести хеширование (проверку) старой папки и будет докачивать только те серии, которых у вас ещё нет. Старые серии при этом не удаляются, а продолжают раздаваться! Eсли вы уже удалили старые серии, то предотвратить повторную закачку старых серий можно, отжав галочку в соответствующих местах при запуске нового торрента.
Скриншоты:
         
         
Вне форума [Профиль] [ЛС]
Показать сообщения:    
Ответить на тему

Текущее время: Сегодня 00:59

Часовой пояс: GMT + 3



Вы не можете начинать темы
Вы не можете отвечать на сообщения
Вы не можете редактировать свои сообщения
Вы не можете удалять свои сообщения
Вы не можете голосовать в опросах
Вы не можете прикреплять файлы к сообщениям
Вы не можете скачивать файлы