Сегодня идет свободное скачивание без начисления Download

Алькатрас / Alcatraz (Сезон 1, серии 01-13 (13) Брэд Андерсон, Джек Бендер, Дэнни Кэннон) (2012) WEB-DLRip 400р (Кубик в кубе)

Ответить на тему
 
Автор
Сообщение

Omen ®

Стаж: 5 лет 9 месяцев

Сообщений: 184393

Торрент-статистика

Пост 18-Янв-2012 18:23

[Цитировать]

Алькатрас / Alcatraz
«302 исчезли. 3 должны найти их»
-
Русское название: Алькатрас
Оригинальное название: Alcatraz
Год выхода: 2012
Производство: США, FOX
Жанр: Боевик, триллер, детектив
Сезон: 1
Серии: 01-13 из 13 серий
Продолжительность: ~ 45:00 мин серия-Перевод: Профессиональный двухголосый закадровый - Кубик в кубе -Режиссер: Брэд Андерсон, Джек Бендер, Дэнни Кэннон
В ролях: Сэм Нил, Сара Джонс, Хорхе Гарсиа, Парминдер Нагрa, Роберт Фостер, Пол МакДжиллион, Сантьяго Кабрера, Джонни Койн, Джейсон Батлер Харнер и др.-Описание: История доктора Диего Сото, лучшего в мире знатока самой знаменитой американской тюрьмы «Алькатрас», расположенной на острове у берегов Сан-Франциско. Сото предстоит разгадать тайну, связанную с загадочным исчезновением заключенных и охранников «Алькатраса» много лет назад и неожиданным их появлением в уже недействующей тюрьме (она была закрыта в 1963 году) в наши дни.

Качество: HDTVRip
Формат: AVI
Видео кодек: XviD
Аудио кодек: AC3
Видео: 720x400 (1.80:1), 23.976 fps, XviD build 50 ~1998 kbps avg, 0.29 bit/pixel
Аудио: Rus: 48 kHz, AC3 Dolby Digital, 3/2 (L,C,R,l,r) + LFE ch, ~384.00 kbps avg
Аудио: Eng: 48 kHz, AC3 Dolby Digital, 3/2 (L,C,R,l,r) + LFE ch, ~384.00 kbps avg
Субтитры: русские, английские - внешние--

MediaInfo

Код:
General
Complete name : G:\ФТП 2\Сериалы\Алькатрас(Alcatraz)\Alcatraz Season 1\Alcatraz.s01e01.rus.eng.avi
Format : AVI
Format/Info : Audio Video Interleave
File size : 885 MiB
Duration : 44mn 29s
Overall bit rate : 2 782 Kbps
Writing application : VirtualDubMod 1.5.10.2 (build 2540/release)
Writing library : VirtualDubMod build 2540/release
Video
ID : 0
Format : MPEG-4 Visual
Format profile : Advanced Simple@L5
Format settings, BVOP : 1
Format settings, QPel : No
Format settings, GMC : No warppoints
Format settings, Matrix : Default (MPEG)
Codec ID : XVID
Codec ID/Hint : XviD
Duration : 44mn 29s
Bit rate : 2 000 Kbps
Width : 720 pixels
Height : 400 pixels
Display aspect ratio : 16:9
Frame rate : 23.976 fps
Color space : YUV
Chroma subsampling : 4:2:0
Bit depth : 8 bits
Scan type : Progressive
Compression mode : Lossy
Bits/(Pixel*Frame) : 0.290
Stream size : 636 MiB (72%)
Writing library : XviD 1.2.1 (UTC 2008-12-04)
Audio #1
ID : 1
Format : AC-3
Format/Info : Audio Coding 3
Mode extension : CM (complete main)
Codec ID : 2000
Duration : 44mn 29s
Bit rate mode : Constant
Bit rate : 384 Kbps
Channel(s) : 6 channels
Channel positions : Front: L C R, Side: L R, LFE
Sampling rate : 48.0 KHz
Bit depth : 16 bits
Compression mode : Lossy
Stream size : 122 MiB (14%)
Alignment : Split accross interleaves
Interleave, duration : 42 ms (1.00 video frame)
Interleave, preload duration : 500 ms
Audio #2
ID : 2
Format : AC-3
Format/Info : Audio Coding 3
Mode extension : CM (complete main)
Codec ID : 2000
Duration : 44mn 29s
Bit rate mode : Constant
Bit rate : 384 Kbps
Channel(s) : 6 channels
Channel positions : Front: L C R, Side: L R, LFE
Sampling rate : 48.0 KHz
Bit depth : 16 bits
Compression mode : Lossy
Stream size : 122 MiB (14%)
Alignment : Split accross interleaves
Interleave, duration : 42 ms (1.00 video frame)
Interleave, preload duration : 500 ms
-

Список серий

  • Пилот. (Pilot)
  • Эрнест Кобб (Ernest Cobb)
  • Кит Нельсон (Kit Nelson)
  • Кэл Суини (Cal Sweeney)
  • Гай Гастингс (Guy Hastings)
  • Пакстон Петти (Paxton Petty)
  • Джонни МакКи (Johnny McKee)
  • Кларенс Монтгомери (Clarence Montgomery)
  • Братья Эймс (The Ames Bros.)
  • Сони Бернет (Sonny Burnett)
  • Уэбб Портер (Webb Porter)
  • Гарретт Стиллман (Garrett Stillman)
  • Томми Медсен (Tommy Madsen)
-

Внимание! Раздача ведётся путём добавления новых серий!

Внимание! Раздача ведётся путём добавления новых серий; при каждом добавлении создаётся новый торрент.
Чтобы начать докачку новой серии, пользователям необходимо сделать следующее:
(1) остановить скачивание;
(2) удалить старый торрент у себя из клиента (старые серии удалять не надо);
(3) скачать новый торрент и запустить его у себя в клиенте вместо старого, при этом указать клиенту путь в старую папку куда и должно происходить скачивание новых серий.Ваш клиент при этом должен произвести хеширование (проверку) старой папки (если не производит сам - помогите ему сделать это), и будет докачивать только те серии которых у вас ещё нет. Старые серии при этом не удаляются, а продолжают раздаваться!Eсли вы уже удалили старые серии, то предотвратить повторную закачку старых серий можно, отжав галочку в соответствующих местах при запуске нового торрента.
-Скриншоты:
     
-


Последний раз редактировалось: Omen (2012-03-10 17:40), всего редактировалось 1 раз
Вне форума [Профиль] [ЛС]
Показать сообщения:    
Ответить на тему

Текущее время: Сегодня 15:09

Часовой пояс: GMT + 3



Вы не можете начинать темы
Вы не можете отвечать на сообщения
Вы не можете редактировать свои сообщения
Вы не можете удалять свои сообщения
Вы не можете голосовать в опросах
Вы не можете прикреплять файлы к сообщениям
Вы не можете скачивать файлы