Today is a free download without charge Download

Mozart - The Piano Sonatas (Daniel Barenboim) (5CDs) (1991) [FLAC|Lossless]<Classical, Chamber Music, Romantic Period, Recitals, Sonatas>

Reply to topic
 
Author
Message

sashau ®

Gender:

Longevity: 9 years 1 month

Posts: 3497

Торрент-статистика

Post 07-Sep-2014 08:35

[Quote]

Mozart - The Piano Sonatas (Daniel Barenboim)
- Дата: Dec 9, 1991
Жанр: Classical, Chamber Music, Romantic Period, Recitals, Sonatas
Лейбл: EMI Classics
Номер по каталогу: 67294
Продолжительность: 05:49:30
Кодек: FLAC
Битрейт: Lossless
Тип рипа: image+.cue
Composer: Wolfgang Amadeus Mozart (1756-1791)
Performer: Daniel Barenboim - Stainway & Sons

CD1&#58;


Продолжительность:
(01:10:52)
Треклист:
Piano Sonata No. 1 in C major, K. 279 (K. 189d)
01. Allegro (04:24)
02. Andante (06:27)
03. Allegro (03:16)
Piano Sonata No. 2 in F major, K. 280 (K. 189e)
04. Allegro assai (04:24)
05. Adagio (06:56)
06. Presto (03:00)
Piano Sonata No. 3 in B flat major, K. 281 (K.189f)
07. Allegro (04:21)
08. Andante amoroso (06:25)
09. Rondeau, Allegro (04:17)
Piano Sonata No. 4 in E flat major, K. 282 (K. 189g)
10. Adagio (08:04)
11. Menuetto I & II (03:56)
12. Allegro (02:07)
Piano Sonata No. 5 in G major, K. 283 (K. 189h)
13. Allegro (04:03)
14. Andante (05:04)
15. Presto (04:02)

cd1 ЕАС - log&#58;

Код:
Exact Audio Copy V1.0 beta 3 from 29. August 2011
EAC extraction logfile from 26. August 2014, 12:34
Daniel Barenboim / Mozart: Piano sonatas (CD1)
Used drive  : TSSTcorpCDDVDW SE-208AB   Adapter: 0  ID: 0
Read mode               : Secure
Utilize accurate stream : Yes
Defeat audio cache      : Yes
Make use of C2 pointers : No
Read offset correction                      : 6
Overread into Lead-In and Lead-Out          : No
Fill up missing offset samples with silence : Yes
Delete leading and trailing silent blocks   : No
Null samples used in CRC calculations       : Yes
Used interface                              : Native Win32 interface for Win NT & 2000
Used output format              : User Defined Encoder
Selected bitrate                : 768 kBit/s
Quality                         : High
Add ID3 tag                     : No
Command line compressor         : C:\Program Files (x86)\Exact Audio Copy\FLAC\FLAC.EXE
Additional command line options : -6 -V -T "ARTIST=%artist%" -T "TITLE=%title%" -T "ALBUM=%albumtitle%" -T "DATE=%year%" -T "TRACKNUMBER=%tracknr%" -T "GENRE=%genre%" -T "COMMENT=%comment%" -T "BAND=%albuminterpret%" -T "ALBUMARTIST=%albuminterpret%" -T "COMPOSER=%composer%" %haslyrics%--tag-from-file=LYRICS="%lyricsfile%"%haslyrics% -T "DISCNUMBER=%cdnumber%" -T "TOTALDISCS=%totalcds%" -T "TOTALTRACKS=%numtracks%" %hascover%--picture="%coverfile%"%hascover% %source% -o %dest%
TOC of the extracted CD
     Track |   Start  |  Length  | Start sector | End sector
    ---------------------------------------------------------
        1  |  0:00.33 |  4:24.57 |        33    |    19889
        2  |  4:25.15 |  6:27.18 |     19890    |    48932
        3  | 10:52.33 |  3:16.17 |     48933    |    63649
        4  | 14:08.50 |  4:24.30 |     63650    |    83479
        5  | 18:33.05 |  6:56.65 |     83480    |   114744
        6  | 25:29.70 |  3:00.60 |    114745    |   128304
        7  | 28:30.55 |  4:21.05 |    128305    |   147884
        8  | 32:51.60 |  6:25.08 |    147885    |   176767
        9  | 39:16.68 |  4:17.30 |    176768    |   196072
       10  | 43:34.23 |  8:04.57 |    196073    |   232429
       11  | 51:39.05 |  3:56.10 |    232430    |   250139
       12  | 55:35.15 |  2:07.58 |    250140    |   259722
       13  | 57:42.73 |  4:03.05 |    259723    |   277952
       14  | 61:46.03 |  5:04.05 |    277953    |   300757
       15  | 66:50.08 |  4:02.47 |    300758    |   318954
Range status and errors
Selected range
     Filename C:\EAC RIPS\Daniel Barenboim - Mozart- Piano sonatas (CD1).wav
     Peak level 83.9 %
     Extraction speed 2.1 X
     Range quality 100.0 %
     Test CRC 86E42BD2
     Copy CRC 86E42BD2
     Copy OK
No errors occurred
AccurateRip summary
Track  1  accurately ripped (confidence 22)  [21A2C520]  (AR v2)
Track  2  accurately ripped (confidence 21)  [4DB4AF6E]  (AR v2)
Track  3  accurately ripped (confidence 21)  [F4F4082C]  (AR v2)
Track  4  accurately ripped (confidence 21)  [E793B6DA]  (AR v2)
Track  5  accurately ripped (confidence 21)  [157A9971]  (AR v2)
Track  6  accurately ripped (confidence 21)  [1699C11A]  (AR v2)
Track  7  accurately ripped (confidence 21)  [DB038A38]  (AR v2)
Track  8  accurately ripped (confidence 20)  [C4D48C8E]  (AR v2)
Track  9  accurately ripped (confidence 20)  [0F07F9B8]  (AR v2)
Track 10  accurately ripped (confidence 21)  [BC6A98BA]  (AR v2)
Track 11  accurately ripped (confidence 22)  [A9D3CB5E]  (AR v2)
Track 12  accurately ripped (confidence 21)  [A2C5322F]  (AR v2)
Track 13  accurately ripped (confidence 22)  [7612D8CB]  (AR v2)
Track 14  accurately ripped (confidence 21)  [6D0D12E1]  (AR v2)
Track 15  accurately ripped (confidence 21)  [D2CFED92]  (AR v2)
All tracks accurately ripped
End of status report
---- CUETools DB Plugin V2.1.3
[CTDB TOCID: 128ESO4KL4Oop6.mB417GQHcN20-] disk not present in database, Submit result: discs with pregaps not supported in this protocol version
==== Log checksum CFF65D753B957618A0065267BCB70D9FE33CAFB22D087A554380A31AC411F14D ====
------------------------------------------------------------
Exact Audio Copy V1.0 beta 3 from 29. August 2011
EAC extraction logfile from 26. August 2014, 12:34
Daniel Barenboim / Mozart: Piano sonatas (CD1)
Used drive  : TSSTcorpCDDVDW SE-208AB   Adapter: 0  ID: 0
Read mode               : Secure
Utilize accurate stream : Yes
Defeat audio cache      : Yes
Make use of C2 pointers : No
Read offset correction                      : 6
Overread into Lead-In and Lead-Out          : No
Fill up missing offset samples with silence : Yes
Delete leading and trailing silent blocks   : No
Null samples used in CRC calculations       : Yes
Used interface                              : Native Win32 interface for Win NT & 2000
Used output format              : User Defined Encoder
Selected bitrate                : 768 kBit/s
Quality                         : High
Add ID3 tag                     : No
Command line compressor         : C:\Program Files (x86)\Exact Audio Copy\FLAC\FLAC.EXE
Additional command line options : -6 -V -T "ARTIST=%artist%" -T "TITLE=%title%" -T "ALBUM=%albumtitle%" -T "DATE=%year%" -T "TRACKNUMBER=%tracknr%" -T "GENRE=%genre%" -T "COMMENT=%comment%" -T "BAND=%albuminterpret%" -T "ALBUMARTIST=%albuminterpret%" -T "COMPOSER=%composer%" %haslyrics%--tag-from-file=LYRICS="%lyricsfile%"%haslyrics% -T "DISCNUMBER=%cdnumber%" -T "TOTALDISCS=%totalcds%" -T "TOTALTRACKS=%numtracks%" %hascover%--picture="%coverfile%"%hascover% %source% -o %dest%
TOC of the extracted CD
     Track |   Start  |  Length  | Start sector | End sector
    ---------------------------------------------------------
        1  |  0:00.33 |  4:24.57 |        33    |    19889
        2  |  4:25.15 |  6:27.18 |     19890    |    48932
        3  | 10:52.33 |  3:16.17 |     48933    |    63649
        4  | 14:08.50 |  4:24.30 |     63650    |    83479
        5  | 18:33.05 |  6:56.65 |     83480    |   114744
        6  | 25:29.70 |  3:00.60 |    114745    |   128304
        7  | 28:30.55 |  4:21.05 |    128305    |   147884
        8  | 32:51.60 |  6:25.08 |    147885    |   176767
        9  | 39:16.68 |  4:17.30 |    176768    |   196072
       10  | 43:34.23 |  8:04.57 |    196073    |   232429
       11  | 51:39.05 |  3:56.10 |    232430    |   250139
       12  | 55:35.15 |  2:07.58 |    250140    |   259722
       13  | 57:42.73 |  4:03.05 |    259723    |   277952
       14  | 61:46.03 |  5:04.05 |    277953    |   300757
       15  | 66:50.08 |  4:02.47 |    300758    |   318954
Range status and errors
Selected range
     Filename C:\EAC RIPS\Daniel Barenboim - Mozart- Piano sonatas (CD1).wav
     Peak level 83.9 %
     Extraction speed 2.1 X
     Range quality 100.0 %
     Test CRC 86E42BD2
     Copy CRC 86E42BD2
     Copy OK
No errors occurred
AccurateRip summary
Track  1  accurately ripped (confidence 22)  [21A2C520]  (AR v2)
Track  2  accurately ripped (confidence 21)  [4DB4AF6E]  (AR v2)
Track  3  accurately ripped (confidence 21)  [F4F4082C]  (AR v2)
Track  4  accurately ripped (confidence 21)  [E793B6DA]  (AR v2)
Track  5  accurately ripped (confidence 21)  [157A9971]  (AR v2)
Track  6  accurately ripped (confidence 21)  [1699C11A]  (AR v2)
Track  7  accurately ripped (confidence 21)  [DB038A38]  (AR v2)
Track  8  accurately ripped (confidence 20)  [C4D48C8E]  (AR v2)
Track  9  accurately ripped (confidence 20)  [0F07F9B8]  (AR v2)
Track 10  accurately ripped (confidence 21)  [BC6A98BA]  (AR v2)
Track 11  accurately ripped (confidence 22)  [A9D3CB5E]  (AR v2)
Track 12  accurately ripped (confidence 21)  [A2C5322F]  (AR v2)
Track 13  accurately ripped (confidence 22)  [7612D8CB]  (AR v2)
Track 14  accurately ripped (confidence 21)  [6D0D12E1]  (AR v2)
Track 15  accurately ripped (confidence 21)  [D2CFED92]  (AR v2)
All tracks accurately ripped
End of status report
---- CUETools DB Plugin V2.1.3
[CTDB TOCID: 128ESO4KL4Oop6.mB417GQHcN20-] disk not present in database, Submit result: discs with pregaps not supported in this protocol version
==== Log checksum CFF65D753B957618A0065267BCB70D9FE33CAFB22D087A554380A31AC411F14D ====

cd1 auCDtect - log&#58;

Код:
-----------------------
DON'T MODIFY THIS FILE
-----------------------
PERFORMER: auCDtect Task Manager, ver. 1.5.1RC6 build 1.5.1.7
Copyright (c) 2008-2010 y-soft. All rights reserved
http://y-soft.org
ANALYZER: auCDtect: CD records authenticity detector, version 0.8.2
Copyright (c) 2004 Oleg Berngardt. All rights reserved.
Copyright (c) 2004 Alexander Djourik. All rights reserved.
FILE: Daniel Barenboim - Mozart- Piano sonatas (CD1).flac
  Size: 239597411 Hash: 9DC98A675D6A2583B53870A85C5C2CFF Accuracy: -m0
  Conclusion: CDDA 100%
  Signature: B8E77B2F7FFE8D5510C5EF6E5250C50F129D7030

CD2&#58;

Продолжительность:(01:08:05)
Треклист:
Piano Sonata No. 6 in D major, K. 284 (K. 205b)
01. Allegro (05:14)
02. Rondeau en Polonaise, Andante (05:28)
03. Thema und 12 Variationen (16:44)
Piano Sonata No. 7 in C major, K. 309 (K. 284b)
04. Allegro con spirito (06:02)
05. Andante un poco Adagio (06:15)
06. Rondeau, Allegretto grazioso (06:24)
Piano Sonata No. 8 in A minor, K. 310 (K. 300d)
07. Allegro maestoso (08:14)
08. Andante cantabile con espressione (10:42)
09. Presto (02:57)

cd2 EAC - log&#58;

Код:
Exact Audio Copy V1.0 beta 3 from 29. August 2011
EAC extraction logfile from 26. August 2014, 14:21
Daniel Barenboim / Mozart: Piano sonatas (CD 2)
Used drive  : TSSTcorpCDDVDW SE-208AB   Adapter: 0  ID: 0
Read mode               : Secure
Utilize accurate stream : Yes
Defeat audio cache      : Yes
Make use of C2 pointers : No
Read offset correction                      : 6
Overread into Lead-In and Lead-Out          : No
Fill up missing offset samples with silence : Yes
Delete leading and trailing silent blocks   : No
Null samples used in CRC calculations       : Yes
Used interface                              : Native Win32 interface for Win NT & 2000
Used output format              : User Defined Encoder
Selected bitrate                : 768 kBit/s
Quality                         : High
Add ID3 tag                     : No
Command line compressor         : C:\Program Files (x86)\Exact Audio Copy\FLAC\FLAC.EXE
Additional command line options : -6 -V -T "ARTIST=%artist%" -T "TITLE=%title%" -T "ALBUM=%albumtitle%" -T "DATE=%year%" -T "TRACKNUMBER=%tracknr%" -T "GENRE=%genre%" -T "COMMENT=%comment%" -T "BAND=%albuminterpret%" -T "ALBUMARTIST=%albuminterpret%" -T "COMPOSER=%composer%" %haslyrics%--tag-from-file=LYRICS="%lyricsfile%"%haslyrics% -T "DISCNUMBER=%cdnumber%" -T "TOTALDISCS=%totalcds%" -T "TOTALTRACKS=%numtracks%" %hascover%--picture="%coverfile%"%hascover% %source% -o %dest%
TOC of the extracted CD
     Track |   Start  |  Length  | Start sector | End sector
    ---------------------------------------------------------
        1  |  0:00.33 |  5:14.65 |        33    |    23647
        2  |  5:15.23 |  5:28.55 |     23648    |    48302
        3  | 10:44.03 | 16:44.65 |     48303    |   123667
        4  | 27:28.68 |  6:02.52 |    123668    |   150869
        5  | 33:31.45 |  6:15.25 |    150870    |   179019
        6  | 39:46.70 |  6:24.60 |    179020    |   207879
        7  | 46:11.55 |  8:14.63 |    207880    |   244992
        8  | 54:26.43 | 10:42.12 |    244993    |   293154
        9  | 65:08.55 |  2:57.35 |    293155    |   306464
Range status and errors
Selected range
     Filename C:\EAC RIPS\Daniel Barenboim - Mozart- Piano sonatas (CD 2).wav
     Peak level 81.8 %
     Extraction speed 2.2 X
     Range quality 100.0 %
     Test CRC 20431193
     Copy CRC 20431193
     Copy OK
No errors occurred
AccurateRip summary
Track  1  accurately ripped (confidence 22)  [78A01B78]  (AR v2)
Track  2  accurately ripped (confidence 22)  [A5365318]  (AR v2)
Track  3  accurately ripped (confidence 22)  [44D97638]  (AR v2)
Track  4  accurately ripped (confidence 22)  [E82358EB]  (AR v2)
Track  5  accurately ripped (confidence 22)  [051D646C]  (AR v2)
Track  6  accurately ripped (confidence 22)  [A5DE8F62]  (AR v2)
Track  7  accurately ripped (confidence 21)  [2E495D8A]  (AR v2)
Track  8  accurately ripped (confidence 22)  [19FCCFDF]  (AR v2)
Track  9  accurately ripped (confidence 21)  [07883305]  (AR v2)
All tracks accurately ripped
End of status report
---- CUETools DB Plugin V2.1.3
[CTDB TOCID: _8F0WtmwcyzV0X4bqBZyZNsXzTU-] disk not present in database, Submit result: discs with pregaps not supported in this protocol version
==== Log checksum 2A79C6F1444E953C6952A15D7FDEFFD80ECE48D4C93FD3376D46FC566CF828EA ====
------------------------------------------------------------
Exact Audio Copy V1.0 beta 3 from 29. August 2011
EAC extraction logfile from 26. August 2014, 14:21
Daniel Barenboim / Mozart: Piano sonatas (CD 2)
Used drive  : TSSTcorpCDDVDW SE-208AB   Adapter: 0  ID: 0
Read mode               : Secure
Utilize accurate stream : Yes
Defeat audio cache      : Yes
Make use of C2 pointers : No
Read offset correction                      : 6
Overread into Lead-In and Lead-Out          : No
Fill up missing offset samples with silence : Yes
Delete leading and trailing silent blocks   : No
Null samples used in CRC calculations       : Yes
Used interface                              : Native Win32 interface for Win NT & 2000
Used output format              : User Defined Encoder
Selected bitrate                : 768 kBit/s
Quality                         : High
Add ID3 tag                     : No
Command line compressor         : C:\Program Files (x86)\Exact Audio Copy\FLAC\FLAC.EXE
Additional command line options : -6 -V -T "ARTIST=%artist%" -T "TITLE=%title%" -T "ALBUM=%albumtitle%" -T "DATE=%year%" -T "TRACKNUMBER=%tracknr%" -T "GENRE=%genre%" -T "COMMENT=%comment%" -T "BAND=%albuminterpret%" -T "ALBUMARTIST=%albuminterpret%" -T "COMPOSER=%composer%" %haslyrics%--tag-from-file=LYRICS="%lyricsfile%"%haslyrics% -T "DISCNUMBER=%cdnumber%" -T "TOTALDISCS=%totalcds%" -T "TOTALTRACKS=%numtracks%" %hascover%--picture="%coverfile%"%hascover% %source% -o %dest%
TOC of the extracted CD
     Track |   Start  |  Length  | Start sector | End sector
    ---------------------------------------------------------
        1  |  0:00.33 |  5:14.65 |        33    |    23647
        2  |  5:15.23 |  5:28.55 |     23648    |    48302
        3  | 10:44.03 | 16:44.65 |     48303    |   123667
        4  | 27:28.68 |  6:02.52 |    123668    |   150869
        5  | 33:31.45 |  6:15.25 |    150870    |   179019
        6  | 39:46.70 |  6:24.60 |    179020    |   207879
        7  | 46:11.55 |  8:14.63 |    207880    |   244992
        8  | 54:26.43 | 10:42.12 |    244993    |   293154
        9  | 65:08.55 |  2:57.35 |    293155    |   306464
Range status and errors
Selected range
     Filename C:\EAC RIPS\Daniel Barenboim - Mozart- Piano sonatas (CD 2).wav
     Peak level 81.8 %
     Extraction speed 2.2 X
     Range quality 100.0 %
     Test CRC 20431193
     Copy CRC 20431193
     Copy OK
No errors occurred
AccurateRip summary
Track  1  accurately ripped (confidence 22)  [78A01B78]  (AR v2)
Track  2  accurately ripped (confidence 22)  [A5365318]  (AR v2)
Track  3  accurately ripped (confidence 22)  [44D97638]  (AR v2)
Track  4  accurately ripped (confidence 22)  [E82358EB]  (AR v2)
Track  5  accurately ripped (confidence 22)  [051D646C]  (AR v2)
Track  6  accurately ripped (confidence 22)  [A5DE8F62]  (AR v2)
Track  7  accurately ripped (confidence 21)  [2E495D8A]  (AR v2)
Track  8  accurately ripped (confidence 22)  [19FCCFDF]  (AR v2)
Track  9  accurately ripped (confidence 21)  [07883305]  (AR v2)
All tracks accurately ripped
End of status report
---- CUETools DB Plugin V2.1.3
[CTDB TOCID: _8F0WtmwcyzV0X4bqBZyZNsXzTU-] disk not present in database, Submit result: discs with pregaps not supported in this protocol version
==== Log checksum 2A79C6F1444E953C6952A15D7FDEFFD80ECE48D4C93FD3376D46FC566CF828EA ====

cd2 auCDtect - log&#58;

Код:
-----------------------
DON'T MODIFY THIS FILE
-----------------------
PERFORMER: auCDtect Task Manager, ver. 1.5.1RC6 build 1.5.1.7
Copyright (c) 2008-2010 y-soft. All rights reserved
http://y-soft.org
ANALYZER: auCDtect: CD records authenticity detector, version 0.8.2
Copyright (c) 2004 Oleg Berngardt. All rights reserved.
Copyright (c) 2004 Alexander Djourik. All rights reserved.
FILE: Daniel Barenboim - Mozart- Piano sonatas (CD 2).flac
  Size: 233865420 Hash: 3CECF5398078A20DB27880D41087050A Accuracy: -m0
  Conclusion: CDDA 100%
  Signature: D434792229EDD3D0A0BEA4C4279A98CACF202FB1

CD3&#58;

Продолжительность:(01:19:22)
Треклист:
Piano Sonata No. 9 in D major, K. 311 (K. 284c)
01. Allegro con spirito (04:24)
02. Andante con espressione (06:26)
03. Rondeau, Allegro (06:20)
Piano Sonata No. 10 in C major, K. 330 (K. 300h)
04. Allegro moderato (06:16)
05. Andante cantabile (08:07)
06. Allegretto (05:43)
Piano Sonata No. 11 in A major ("Alla Turca") K. 331 (K. 300i)
07. Theme, Andante grazioso (14:04)
08. Menuetto & Trio (05:53)
09. Alla Turca, Allegretto (03:19)
Piano Sonata No. 12 in F major, K. 332 (K. 300k)
10. Allegro (07:07)
11. Adagio (04:34)
12. Allegro assai (07:02)

cd3 EAC - log&#58;

Код:
Exact Audio Copy V1.0 beta 3 from 29. August 2011
EAC extraction logfile from 26. August 2014, 15:39
Daniel Barenboim / Mozart: Piano sonatas (CD 3)
Used drive  : TSSTcorpCDDVDW SE-208AB   Adapter: 0  ID: 0
Read mode               : Secure
Utilize accurate stream : Yes
Defeat audio cache      : Yes
Make use of C2 pointers : No
Read offset correction                      : 6
Overread into Lead-In and Lead-Out          : No
Fill up missing offset samples with silence : Yes
Delete leading and trailing silent blocks   : No
Null samples used in CRC calculations       : Yes
Used interface                              : Native Win32 interface for Win NT & 2000
Used output format              : User Defined Encoder
Selected bitrate                : 768 kBit/s
Quality                         : High
Add ID3 tag                     : No
Command line compressor         : C:\Program Files (x86)\Exact Audio Copy\FLAC\FLAC.EXE
Additional command line options : -6 -V -T "ARTIST=%artist%" -T "TITLE=%title%" -T "ALBUM=%albumtitle%" -T "DATE=%year%" -T "TRACKNUMBER=%tracknr%" -T "GENRE=%genre%" -T "COMMENT=%comment%" -T "BAND=%albuminterpret%" -T "ALBUMARTIST=%albuminterpret%" -T "COMPOSER=%composer%" %haslyrics%--tag-from-file=LYRICS="%lyricsfile%"%haslyrics% -T "DISCNUMBER=%cdnumber%" -T "TOTALDISCS=%totalcds%" -T "TOTALTRACKS=%numtracks%" %hascover%--picture="%coverfile%"%hascover% %source% -o %dest%
TOC of the extracted CD
     Track |   Start  |  Length  | Start sector | End sector
    ---------------------------------------------------------
        1  |  0:00.33 |  4:24.40 |        33    |    19872
        2  |  4:24.73 |  6:26.07 |     19873    |    48829
        3  | 10:51.05 |  6:20.65 |     48830    |    77394
        4  | 17:11.70 |  6:16.30 |     77395    |   105624
        5  | 23:28.25 |  8:07.50 |    105625    |   142199
        6  | 31:36.00 |  5:43.58 |    142200    |   167982
        7  | 37:19.58 | 14:04.42 |    167983    |   231324
        8  | 51:24.25 |  5:53.30 |    231325    |   257829
        9  | 57:17.55 |  3:19.68 |    257830    |   272822
       10  | 60:37.48 |  7:07.30 |    272823    |   304877
       11  | 67:45.03 |  4:34.67 |    304878    |   325494
       12  | 72:19.70 |  7:02.40 |    325495    |   357184
Range status and errors
Selected range
     Filename C:\EAC RIPS\Daniel Barenboim - Mozart- Piano sonatas (CD 3).wav
     Peak level 93.4 %
     Extraction speed 2.3 X
     Range quality 100.0 %
     Test CRC 213E6049
     Copy CRC 213E6049
     Copy OK
No errors occurred
AccurateRip summary
Track  1  accurately ripped (confidence 26)  [20A839E5]  (AR v2)
Track  2  accurately ripped (confidence 27)  [815ED16F]  (AR v2)
Track  3  accurately ripped (confidence 27)  [894D7636]  (AR v2)
Track  4  accurately ripped (confidence 27)  [BDDD22E9]  (AR v2)
Track  5  accurately ripped (confidence 27)  [2EF976EA]  (AR v2)
Track  6  accurately ripped (confidence 27)  [0D538A68]  (AR v2)
Track  7  accurately ripped (confidence 26)  [3B2D0E6F]  (AR v2)
Track  8  accurately ripped (confidence 26)  [D914866E]  (AR v2)
Track  9  accurately ripped (confidence 26)  [B84CFC11]  (AR v2)
Track 10  accurately ripped (confidence 26)  [7D2621CB]  (AR v2)
Track 11  accurately ripped (confidence 26)  [2D9E48D8]  (AR v2)
Track 12  accurately ripped (confidence 23)  [E1BDB802]  (AR v2)
All tracks accurately ripped
End of status report
---- CUETools DB Plugin V2.1.3
[CTDB TOCID: 9ts18oQhIIpPoCVhe8Elg3nmvmE-] found, Submit result: discs with pregaps not supported in this protocol version
[73e9bc73] (1/1) Differs in 23518 samples @78:39:45-78:39:65
You can use CUETools to repair this rip.
==== Log checksum 28E3CEDD1F770ED18118EC1658729DE8EF4D182FAFB9BC5A3CC86747BBD6CD3D ====
------------------------------------------------------------
Exact Audio Copy V1.0 beta 3 from 29. August 2011
EAC extraction logfile from 26. August 2014, 15:39
Daniel Barenboim / Mozart: Piano sonatas (CD 3)
Used drive  : TSSTcorpCDDVDW SE-208AB   Adapter: 0  ID: 0
Read mode               : Secure
Utilize accurate stream : Yes
Defeat audio cache      : Yes
Make use of C2 pointers : No
Read offset correction                      : 6
Overread into Lead-In and Lead-Out          : No
Fill up missing offset samples with silence : Yes
Delete leading and trailing silent blocks   : No
Null samples used in CRC calculations       : Yes
Used interface                              : Native Win32 interface for Win NT & 2000
Used output format              : User Defined Encoder
Selected bitrate                : 768 kBit/s
Quality                         : High
Add ID3 tag                     : No
Command line compressor         : C:\Program Files (x86)\Exact Audio Copy\FLAC\FLAC.EXE
Additional command line options : -6 -V -T "ARTIST=%artist%" -T "TITLE=%title%" -T "ALBUM=%albumtitle%" -T "DATE=%year%" -T "TRACKNUMBER=%tracknr%" -T "GENRE=%genre%" -T "COMMENT=%comment%" -T "BAND=%albuminterpret%" -T "ALBUMARTIST=%albuminterpret%" -T "COMPOSER=%composer%" %haslyrics%--tag-from-file=LYRICS="%lyricsfile%"%haslyrics% -T "DISCNUMBER=%cdnumber%" -T "TOTALDISCS=%totalcds%" -T "TOTALTRACKS=%numtracks%" %hascover%--picture="%coverfile%"%hascover% %source% -o %dest%
TOC of the extracted CD
     Track |   Start  |  Length  | Start sector | End sector
    ---------------------------------------------------------
        1  |  0:00.33 |  4:24.40 |        33    |    19872
        2  |  4:24.73 |  6:26.07 |     19873    |    48829
        3  | 10:51.05 |  6:20.65 |     48830    |    77394
        4  | 17:11.70 |  6:16.30 |     77395    |   105624
        5  | 23:28.25 |  8:07.50 |    105625    |   142199
        6  | 31:36.00 |  5:43.58 |    142200    |   167982
        7  | 37:19.58 | 14:04.42 |    167983    |   231324
        8  | 51:24.25 |  5:53.30 |    231325    |   257829
        9  | 57:17.55 |  3:19.68 |    257830    |   272822
       10  | 60:37.48 |  7:07.30 |    272823    |   304877
       11  | 67:45.03 |  4:34.67 |    304878    |   325494
       12  | 72:19.70 |  7:02.40 |    325495    |   357184
Range status and errors
Selected range
     Filename C:\EAC RIPS\Daniel Barenboim - Mozart- Piano sonatas (CD 3).wav
     Peak level 93.4 %
     Extraction speed 2.3 X
     Range quality 100.0 %
     Test CRC 213E6049
     Copy CRC 213E6049
     Copy OK
No errors occurred
AccurateRip summary
Track  1  accurately ripped (confidence 26)  [20A839E5]  (AR v2)
Track  2  accurately ripped (confidence 27)  [815ED16F]  (AR v2)
Track  3  accurately ripped (confidence 27)  [894D7636]  (AR v2)
Track  4  accurately ripped (confidence 27)  [BDDD22E9]  (AR v2)
Track  5  accurately ripped (confidence 27)  [2EF976EA]  (AR v2)
Track  6  accurately ripped (confidence 27)  [0D538A68]  (AR v2)
Track  7  accurately ripped (confidence 26)  [3B2D0E6F]  (AR v2)
Track  8  accurately ripped (confidence 26)  [D914866E]  (AR v2)
Track  9  accurately ripped (confidence 26)  [B84CFC11]  (AR v2)
Track 10  accurately ripped (confidence 26)  [7D2621CB]  (AR v2)
Track 11  accurately ripped (confidence 26)  [2D9E48D8]  (AR v2)
Track 12  accurately ripped (confidence 23)  [E1BDB802]  (AR v2)
All tracks accurately ripped
End of status report
---- CUETools DB Plugin V2.1.3
[CTDB TOCID: 9ts18oQhIIpPoCVhe8Elg3nmvmE-] found, Submit result: discs with pregaps not supported in this protocol version
[73e9bc73] (1/1) Differs in 23518 samples @78:39:45-78:39:65
You can use CUETools to repair this rip.
==== Log checksum 28E3CEDD1F770ED18118EC1658729DE8EF4D182FAFB9BC5A3CC86747BBD6CD3D ====
------------------------------------------------------------
Exact Audio Copy V1.0 beta 3 from 29. August 2011
EAC extraction logfile from 26. August 2014, 15:39
Daniel Barenboim / Mozart: Piano sonatas (CD 3)
Used drive  : TSSTcorpCDDVDW SE-208AB   Adapter: 0  ID: 0
Read mode               : Secure
Utilize accurate stream : Yes
Defeat audio cache      : Yes
Make use of C2 pointers : No
Read offset correction                      : 6
Overread into Lead-In and Lead-Out          : No
Fill up missing offset samples with silence : Yes
Delete leading and trailing silent blocks   : No
Null samples used in CRC calculations       : Yes
Used interface                              : Native Win32 interface for Win NT & 2000
Used output format              : User Defined Encoder
Selected bitrate                : 768 kBit/s
Quality                         : High
Add ID3 tag                     : No
Command line compressor         : C:\Program Files (x86)\Exact Audio Copy\FLAC\FLAC.EXE
Additional command line options : -6 -V -T "ARTIST=%artist%" -T "TITLE=%title%" -T "ALBUM=%albumtitle%" -T "DATE=%year%" -T "TRACKNUMBER=%tracknr%" -T "GENRE=%genre%" -T "COMMENT=%comment%" -T "BAND=%albuminterpret%" -T "ALBUMARTIST=%albuminterpret%" -T "COMPOSER=%composer%" %haslyrics%--tag-from-file=LYRICS="%lyricsfile%"%haslyrics% -T "DISCNUMBER=%cdnumber%" -T "TOTALDISCS=%totalcds%" -T "TOTALTRACKS=%numtracks%" %hascover%--picture="%coverfile%"%hascover% %source% -o %dest%
TOC of the extracted CD
     Track |   Start  |  Length  | Start sector | End sector
    ---------------------------------------------------------
        1  |  0:00.33 |  4:24.40 |        33    |    19872
        2  |  4:24.73 |  6:26.07 |     19873    |    48829
        3  | 10:51.05 |  6:20.65 |     48830    |    77394
        4  | 17:11.70 |  6:16.30 |     77395    |   105624
        5  | 23:28.25 |  8:07.50 |    105625    |   142199
        6  | 31:36.00 |  5:43.58 |    142200    |   167982
        7  | 37:19.58 | 14:04.42 |    167983    |   231324
        8  | 51:24.25 |  5:53.30 |    231325    |   257829
        9  | 57:17.55 |  3:19.68 |    257830    |   272822
       10  | 60:37.48 |  7:07.30 |    272823    |   304877
       11  | 67:45.03 |  4:34.67 |    304878    |   325494
       12  | 72:19.70 |  7:02.40 |    325495    |   357184
Range status and errors
Selected range
     Filename C:\EAC RIPS\Daniel Barenboim - Mozart- Piano sonatas (CD 3).wav
     Peak level 93.4 %
     Extraction speed 2.3 X
     Range quality 100.0 %
     Test CRC 213E6049
     Copy CRC 213E6049
     Copy OK
No errors occurred
AccurateRip summary
Track  1  accurately ripped (confidence 26)  [20A839E5]  (AR v2)
Track  2  accurately ripped (confidence 27)  [815ED16F]  (AR v2)
Track  3  accurately ripped (confidence 27)  [894D7636]  (AR v2)
Track  4  accurately ripped (confidence 27)  [BDDD22E9]  (AR v2)
Track  5  accurately ripped (confidence 27)  [2EF976EA]  (AR v2)
Track  6  accurately ripped (confidence 27)  [0D538A68]  (AR v2)
Track  7  accurately ripped (confidence 26)  [3B2D0E6F]  (AR v2)
Track  8  accurately ripped (confidence 26)  [D914866E]  (AR v2)
Track  9  accurately ripped (confidence 26)  [B84CFC11]  (AR v2)
Track 10  accurately ripped (confidence 26)  [7D2621CB]  (AR v2)
Track 11  accurately ripped (confidence 26)  [2D9E48D8]  (AR v2)
Track 12  accurately ripped (confidence 23)  [E1BDB802]  (AR v2)
All tracks accurately ripped
End of status report
---- CUETools DB Plugin V2.1.3
[CTDB TOCID: 9ts18oQhIIpPoCVhe8Elg3nmvmE-] found, Submit result: discs with pregaps not supported in this protocol version
[73e9bc73] (1/1) Differs in 23518 samples @78:39:45-78:39:65
You can use CUETools to repair this rip.
==== Log checksum 28E3CEDD1F770ED18118EC1658729DE8EF4D182FAFB9BC5A3CC86747BBD6CD3D ====

cd3 auCDtect - log&#58;

Код:
-----------------------
DON'T MODIFY THIS FILE
-----------------------
PERFORMER: auCDtect Task Manager, ver. 1.5.1RC6 build 1.5.1.7
Copyright (c) 2008-2010 y-soft. All rights reserved
http://y-soft.org
ANALYZER: auCDtect: CD records authenticity detector, version 0.8.2
Copyright (c) 2004 Oleg Berngardt. All rights reserved.
Copyright (c) 2004 Alexander Djourik. All rights reserved.
FILE: Daniel Barenboim - Mozart- Piano sonatas (CD 3).flac
  Size: 266701010 Hash: 338407EE370D7EDAD7B04FDF99001135 Accuracy: -m0
  Conclusion: CDDA 100%
  Signature: 3070155737F0B3DA4CE73B2FBD69448CB46F29B6

CD4&#58;

Продолжительность:(057:44)
Треклист:
Piano Sonata No. 13 in B flat major, K. 333 (K. 315c)
01. Allegro (07:18)
02. Andante cantabile (09:06)
03. Allegretto grazioso (06:22)
04. Fantasia for piano in C minor, K. 475 (13:52)
Piano Sonata No. 14 in C minor, K. 457
05. Allegro (08:15)
06. Adagio (07:51)
07. Molto allegro (05:01)

cd4 EAC - log&#58;

Код:
Exact Audio Copy V1.0 beta 3 from 29. August 2011
EAC extraction logfile from 26. August 2014, 16:47
Daniel Barenboim / Mozart: Piano sonatas (CD 4)
Used drive  : TSSTcorpCDDVDW SE-208AB   Adapter: 0  ID: 0
Read mode               : Secure
Utilize accurate stream : Yes
Defeat audio cache      : Yes
Make use of C2 pointers : No
Read offset correction                      : 6
Overread into Lead-In and Lead-Out          : No
Fill up missing offset samples with silence : Yes
Delete leading and trailing silent blocks   : No
Null samples used in CRC calculations       : Yes
Used interface                              : Native Win32 interface for Win NT & 2000
Used output format              : User Defined Encoder
Selected bitrate                : 768 kBit/s
Quality                         : High
Add ID3 tag                     : No
Command line compressor         : C:\Program Files (x86)\Exact Audio Copy\FLAC\FLAC.EXE
Additional command line options : -6 -V -T "ARTIST=%artist%" -T "TITLE=%title%" -T "ALBUM=%albumtitle%" -T "DATE=%year%" -T "TRACKNUMBER=%tracknr%" -T "GENRE=%genre%" -T "COMMENT=%comment%" -T "BAND=%albuminterpret%" -T "ALBUMARTIST=%albuminterpret%" -T "COMPOSER=%composer%" %haslyrics%--tag-from-file=LYRICS="%lyricsfile%"%haslyrics% -T "DISCNUMBER=%cdnumber%" -T "TOTALDISCS=%totalcds%" -T "TOTALTRACKS=%numtracks%" %hascover%--picture="%coverfile%"%hascover% %source% -o %dest%
TOC of the extracted CD
     Track |   Start  |  Length  | Start sector | End sector
    ---------------------------------------------------------
        1  |  0:00.32 |  7:17.43 |        32    |    32849
        2  |  7:18.00 |  9:05.72 |     32850    |    73796
        3  | 16:23.72 |  6:22.08 |     73797    |   102454
        4  | 22:46.05 | 13:52.00 |    102455    |   164854
        5  | 36:38.05 |  8:14.52 |    164855    |   201956
        6  | 44:52.57 |  7:50.65 |    201957    |   237271
        7  | 52:43.47 |  5:01.03 |    237272    |   259849
Range status and errors
Selected range
     Filename C:\EAC RIPS\Daniel Barenboim - Mozart- Piano sonatas (CD 4).wav
     Peak level 95.4 %
     Extraction speed 2.0 X
     Range quality 100.0 %
     Test CRC 8EF5B6EF
     Copy CRC 8EF5B6EF
     Copy OK
No errors occurred
AccurateRip summary
Track  1  accurately ripped (confidence 26)  [8DBC2E41]  (AR v2)
Track  2  accurately ripped (confidence 26)  [2841D44B]  (AR v2)
Track  3  accurately ripped (confidence 26)  [9A3DDB59]  (AR v2)
Track  4  accurately ripped (confidence 26)  [013CC398]  (AR v2)
Track  5  accurately ripped (confidence 26)  [24B56355]  (AR v2)
Track  6  accurately ripped (confidence 26)  [DDDD1851]  (AR v2)
Track  7  accurately ripped (confidence 26)  [C5FF7044]  (AR v2)
All tracks accurately ripped
End of status report
---- CUETools DB Plugin V2.1.3
[CTDB TOCID: IgVHTgkGbYaFf7QBbm0ykEYlotA-] found, Submit result: discs with pregaps not supported in this protocol version
[5d9bb8f1] (1/1) Differs in 0 samples @
You can use CUETools to repair this rip.
==== Log checksum 6EF5BAC14668C2887A00CCEDA11B77B0E7E92DF5B67D54753528EB93B727E67E ====
------------------------------------------------------------
Exact Audio Copy V1.0 beta 3 from 29. August 2011
EAC extraction logfile from 26. August 2014, 16:47
Daniel Barenboim / Mozart: Piano sonatas (CD 4)
Used drive  : TSSTcorpCDDVDW SE-208AB   Adapter: 0  ID: 0
Read mode               : Secure
Utilize accurate stream : Yes
Defeat audio cache      : Yes
Make use of C2 pointers : No
Read offset correction                      : 6
Overread into Lead-In and Lead-Out          : No
Fill up missing offset samples with silence : Yes
Delete leading and trailing silent blocks   : No
Null samples used in CRC calculations       : Yes
Used interface                              : Native Win32 interface for Win NT & 2000
Used output format              : User Defined Encoder
Selected bitrate                : 768 kBit/s
Quality                         : High
Add ID3 tag                     : No
Command line compressor         : C:\Program Files (x86)\Exact Audio Copy\FLAC\FLAC.EXE
Additional command line options : -6 -V -T "ARTIST=%artist%" -T "TITLE=%title%" -T "ALBUM=%albumtitle%" -T "DATE=%year%" -T "TRACKNUMBER=%tracknr%" -T "GENRE=%genre%" -T "COMMENT=%comment%" -T "BAND=%albuminterpret%" -T "ALBUMARTIST=%albuminterpret%" -T "COMPOSER=%composer%" %haslyrics%--tag-from-file=LYRICS="%lyricsfile%"%haslyrics% -T "DISCNUMBER=%cdnumber%" -T "TOTALDISCS=%totalcds%" -T "TOTALTRACKS=%numtracks%" %hascover%--picture="%coverfile%"%hascover% %source% -o %dest%
TOC of the extracted CD
     Track |   Start  |  Length  | Start sector | End sector
    ---------------------------------------------------------
        1  |  0:00.32 |  7:17.43 |        32    |    32849
        2  |  7:18.00 |  9:05.72 |     32850    |    73796
        3  | 16:23.72 |  6:22.08 |     73797    |   102454
        4  | 22:46.05 | 13:52.00 |    102455    |   164854
        5  | 36:38.05 |  8:14.52 |    164855    |   201956
        6  | 44:52.57 |  7:50.65 |    201957    |   237271
        7  | 52:43.47 |  5:01.03 |    237272    |   259849
Range status and errors
Selected range
     Filename C:\EAC RIPS\Daniel Barenboim - Mozart- Piano sonatas (CD 4).wav
     Peak level 95.4 %
     Extraction speed 2.0 X
     Range quality 100.0 %
     Test CRC 8EF5B6EF
     Copy CRC 8EF5B6EF
     Copy OK
No errors occurred
AccurateRip summary
Track  1  accurately ripped (confidence 26)  [8DBC2E41]  (AR v2)
Track  2  accurately ripped (confidence 26)  [2841D44B]  (AR v2)
Track  3  accurately ripped (confidence 26)  [9A3DDB59]  (AR v2)
Track  4  accurately ripped (confidence 26)  [013CC398]  (AR v2)
Track  5  accurately ripped (confidence 26)  [24B56355]  (AR v2)
Track  6  accurately ripped (confidence 26)  [DDDD1851]  (AR v2)
Track  7  accurately ripped (confidence 26)  [C5FF7044]  (AR v2)
All tracks accurately ripped
End of status report
---- CUETools DB Plugin V2.1.3
[CTDB TOCID: IgVHTgkGbYaFf7QBbm0ykEYlotA-] found, Submit result: discs with pregaps not supported in this protocol version
[5d9bb8f1] (1/1) Differs in 0 samples @
You can use CUETools to repair this rip.
==== Log checksum 6EF5BAC14668C2887A00CCEDA11B77B0E7E92DF5B67D54753528EB93B727E67E ====

cd4 auCDtect - log&#58;

Код:
-----------------------
DON'T MODIFY THIS FILE
-----------------------
PERFORMER: auCDtect Task Manager, ver. 1.5.1RC6 build 1.5.1.7
Copyright (c) 2008-2010 y-soft. All rights reserved
http://y-soft.org
ANALYZER: auCDtect: CD records authenticity detector, version 0.8.2
Copyright (c) 2004 Oleg Berngardt. All rights reserved.
Copyright (c) 2004 Alexander Djourik. All rights reserved.
FILE: Daniel Barenboim - Mozart- Piano sonatas (CD 4).flac
  Size: 190857818 Hash: DED1CAB60DD820C02DF9D5AC9046F885 Accuracy: -m0
  Conclusion: CDDA 100%
  Signature: 51D263B578AAD0224EDF5B24A022DBAD72E782C3

CD5&#58;

Продолжительность:(01:13:23)
Треклист:
Piano Sonata in F major, K. 533/494
01. Allegro (07:32)
02. Andante (13:16)
03. Rondo: Allegretto (06:21)
Piano Sonata No. 15 in C major ("Sonata semplice") K. 545
04. Allegro (03:06)
05. Andante (05:59)
06. Rondo (01:36)
Piano Sonata No. 16 in B flat major, K. 570
07. Allegro (06:32)
08. Adagio (09:59)
09. Allegretto (03:53)
Piano Sonata No. 17 in D major ("Trumpet", "Hunt"), K. 576
10. Allegro (04:48)
11. Adagio (05:54)
12. Allegretto (04:28)

cd5 EAC - log&#58;

Код:
Exact Audio Copy V1.0 beta 3 from 29. August 2011
EAC extraction logfile from 26. August 2014, 18:25
Daniel Barenboim / Mozart: Piano sonatas (CD 5)
Used drive  : TSSTcorpCDDVDW SE-208AB   Adapter: 0  ID: 0
Read mode               : Secure
Utilize accurate stream : Yes
Defeat audio cache      : Yes
Make use of C2 pointers : No
Read offset correction                      : 6
Overread into Lead-In and Lead-Out          : No
Fill up missing offset samples with silence : Yes
Delete leading and trailing silent blocks   : No
Null samples used in CRC calculations       : Yes
Used interface                              : Native Win32 interface for Win NT & 2000
Used output format              : User Defined Encoder
Selected bitrate                : 768 kBit/s
Quality                         : High
Add ID3 tag                     : No
Command line compressor         : C:\Program Files (x86)\Exact Audio Copy\FLAC\FLAC.EXE
Additional command line options : -6 -V -T "ARTIST=%artist%" -T "TITLE=%title%" -T "ALBUM=%albumtitle%" -T "DATE=%year%" -T "TRACKNUMBER=%tracknr%" -T "GENRE=%genre%" -T "COMMENT=%comment%" -T "BAND=%albuminterpret%" -T "ALBUMARTIST=%albuminterpret%" -T "COMPOSER=%composer%" %haslyrics%--tag-from-file=LYRICS="%lyricsfile%"%haslyrics% -T "DISCNUMBER=%cdnumber%" -T "TOTALDISCS=%totalcds%" -T "TOTALTRACKS=%numtracks%" %hascover%--picture="%coverfile%"%hascover% %source% -o %dest%
TOC of the extracted CD
     Track |   Start  |  Length  | Start sector | End sector
    ---------------------------------------------------------
        1  |  0:00.33 |  7:32.05 |        33    |    33937
        2  |  7:32.38 | 13:16.02 |     33938    |    93639
        3  | 20:48.40 |  6:20.38 |     93640    |   122177
        4  | 27:09.03 |  3:06.27 |    122178    |   136154
        5  | 30:15.30 |  5:59.25 |    136155    |   163104
        6  | 36:14.55 |  1:36.18 |    163105    |   170322
        7  | 37:50.73 |  6:31.40 |    170323    |   199687
        8  | 44:22.38 |  9:58.72 |    199688    |   244609
        9  | 54:21.35 |  3:52.45 |    244610    |   262054
       10  | 58:14.05 |  4:48.25 |    262055    |   283679
       11  | 63:02.30 |  5:54.10 |    283680    |   310239
       12  | 68:56.40 |  4:27.53 |    310240    |   330317
Range status and errors
Selected range
     Filename C:\EAC RIPS\Daniel Barenboim - Mozart- Piano sonatas (CD 5).wav
     Peak level 65.4 %
     Extraction speed 2.2 X
     Range quality 100.0 %
     Test CRC 4ECC571D
     Copy CRC 4ECC571D
     Copy OK
No errors occurred
AccurateRip summary
Track  1  accurately ripped (confidence 26)  [BAE67F2A]  (AR v2)
Track  2  accurately ripped (confidence 26)  [2E5E7065]  (AR v2)
Track  3  accurately ripped (confidence 26)  [68815970]  (AR v2)
Track  4  accurately ripped (confidence 26)  [2A91490E]  (AR v2)
Track  5  accurately ripped (confidence 26)  [1469A87C]  (AR v2)
Track  6  accurately ripped (confidence 26)  [4D1508F3]  (AR v2)
Track  7  accurately ripped (confidence 26)  [634B1506]  (AR v2)
Track  8  accurately ripped (confidence 26)  [65FDB505]  (AR v2)
Track  9  accurately ripped (confidence 26)  [165C07B2]  (AR v2)
Track 10  accurately ripped (confidence 25)  [482A687B]  (AR v2)
Track 11  accurately ripped (confidence 25)  [8C45D47F]  (AR v2)
Track 12  accurately ripped (confidence 25)  [49F5FE56]  (AR v2)
All tracks accurately ripped
End of status report
---- CUETools DB Plugin V2.1.3
[CTDB TOCID: .8uH4nEoz_AdaiA7WbOQkLGEvvM-] found, Submit result: discs with pregaps not supported in this protocol version
[0ae3fd97] (1/1) Differs in 0 samples @
You can use CUETools to repair this rip.
==== Log checksum 754670BCEB5C76A611C9C6E30036BDF9EAE15974B5593ED642473F2A8E1EB45F ====
------------------------------------------------------------
Exact Audio Copy V1.0 beta 3 from 29. August 2011
EAC extraction logfile from 26. August 2014, 18:25
Daniel Barenboim / Mozart: Piano sonatas (CD 5)
Used drive  : TSSTcorpCDDVDW SE-208AB   Adapter: 0  ID: 0
Read mode               : Secure
Utilize accurate stream : Yes
Defeat audio cache      : Yes
Make use of C2 pointers : No
Read offset correction                      : 6
Overread into Lead-In and Lead-Out          : No
Fill up missing offset samples with silence : Yes
Delete leading and trailing silent blocks   : No
Null samples used in CRC calculations       : Yes
Used interface                              : Native Win32 interface for Win NT & 2000
Used output format              : User Defined Encoder
Selected bitrate                : 768 kBit/s
Quality                         : High
Add ID3 tag                     : No
Command line compressor         : C:\Program Files (x86)\Exact Audio Copy\FLAC\FLAC.EXE
Additional command line options : -6 -V -T "ARTIST=%artist%" -T "TITLE=%title%" -T "ALBUM=%albumtitle%" -T "DATE=%year%" -T "TRACKNUMBER=%tracknr%" -T "GENRE=%genre%" -T "COMMENT=%comment%" -T "BAND=%albuminterpret%" -T "ALBUMARTIST=%albuminterpret%" -T "COMPOSER=%composer%" %haslyrics%--tag-from-file=LYRICS="%lyricsfile%"%haslyrics% -T "DISCNUMBER=%cdnumber%" -T "TOTALDISCS=%totalcds%" -T "TOTALTRACKS=%numtracks%" %hascover%--picture="%coverfile%"%hascover% %source% -o %dest%
TOC of the extracted CD
     Track |   Start  |  Length  | Start sector | End sector
    ---------------------------------------------------------
        1  |  0:00.33 |  7:32.05 |        33    |    33937
        2  |  7:32.38 | 13:16.02 |     33938    |    93639
        3  | 20:48.40 |  6:20.38 |     93640    |   122177
        4  | 27:09.03 |  3:06.27 |    122178    |   136154
        5  | 30:15.30 |  5:59.25 |    136155    |   163104
        6  | 36:14.55 |  1:36.18 |    163105    |   170322
        7  | 37:50.73 |  6:31.40 |    170323    |   199687
        8  | 44:22.38 |  9:58.72 |    199688    |   244609
        9  | 54:21.35 |  3:52.45 |    244610    |   262054
       10  | 58:14.05 |  4:48.25 |    262055    |   283679
       11  | 63:02.30 |  5:54.10 |    283680    |   310239
       12  | 68:56.40 |  4:27.53 |    310240    |   330317
Range status and errors
Selected range
     Filename C:\EAC RIPS\Daniel Barenboim - Mozart- Piano sonatas (CD 5).wav
     Peak level 65.4 %
     Extraction speed 2.2 X
     Range quality 100.0 %
     Test CRC 4ECC571D
     Copy CRC 4ECC571D
     Copy OK
No errors occurred
AccurateRip summary
Track  1  accurately ripped (confidence 26)  [BAE67F2A]  (AR v2)
Track  2  accurately ripped (confidence 26)  [2E5E7065]  (AR v2)
Track  3  accurately ripped (confidence 26)  [68815970]  (AR v2)
Track  4  accurately ripped (confidence 26)  [2A91490E]  (AR v2)
Track  5  accurately ripped (confidence 26)  [1469A87C]  (AR v2)
Track  6  accurately ripped (confidence 26)  [4D1508F3]  (AR v2)
Track  7  accurately ripped (confidence 26)  [634B1506]  (AR v2)
Track  8  accurately ripped (confidence 26)  [65FDB505]  (AR v2)
Track  9  accurately ripped (confidence 26)  [165C07B2]  (AR v2)
Track 10  accurately ripped (confidence 25)  [482A687B]  (AR v2)
Track 11  accurately ripped (confidence 25)  [8C45D47F]  (AR v2)
Track 12  accurately ripped (confidence 25)  [49F5FE56]  (AR v2)
All tracks accurately ripped
End of status report
---- CUETools DB Plugin V2.1.3
[CTDB TOCID: .8uH4nEoz_AdaiA7WbOQkLGEvvM-] found, Submit result: discs with pregaps not supported in this protocol version
[0ae3fd97] (1/1) Differs in 0 samples @
You can use CUETools to repair this rip.
==== Log checksum 754670BCEB5C76A611C9C6E30036BDF9EAE15974B5593ED642473F2A8E1EB45F ====

cd5 auCDtect - log&#58;

Код:
-----------------------
DON'T MODIFY THIS FILE
-----------------------
PERFORMER: auCDtect Task Manager, ver. 1.5.1RC6 build 1.5.1.7
Copyright (c) 2008-2010 y-soft. All rights reserved
http://y-soft.org
ANALYZER: auCDtect: CD records authenticity detector, version 0.8.2
Copyright (c) 2004 Oleg Berngardt. All rights reserved.
Copyright (c) 2004 Alexander Djourik. All rights reserved.
FILE: Daniel Barenboim - Mozart- Piano sonatas (CD 5).flac
  Size: 236554062 Hash: 8AB4D82AEF324F7A190A57774329F9F8 Accuracy: -m0
  Conclusion: CDDA 100%
  Signature: BEC114D5529EE2A999A38F61FAFB53E5B4CC8D03
Other forum [Profile] [PM]
Display posts from previous:    
Reply to topic

The time now is: Today 08:32

All times are GMT + 3 Hours



You cannot post new topics in this forum
You cannot reply to topics in this forum
You cannot edit your posts in this forum
You cannot delete your posts in this forum
You cannot vote in polls in this forum
You cannot attach files in this forum
You cannot download files in this forum