Сегодня идет свободное скачивание без начисления Download

РЭД: Дилогия / RED: Dilogy (Роберт Швентке, Дин Паризо) [2010 - 2013, боевик, триллер, комедия, криминал, BDRip 720p] DUB [Лицензия]

Ответить на тему
 
Автор
Сообщение

O.S.A. ®

Пол:

Стаж: 4 года 1 месяц

Сообщений: 4454

Откуда: СССР

Торрент-статистика

Пост 05-Сен-2014 22:29

[Цитировать]

--РЭД: Дилогия / RED: Dilogy-- --

РЭД / RED:

--РЭД / RED-«Бывших агентов не бывает»-- Год выпуска: 2010
Страна: США
Жанр: боевик, триллер, комедия, криминал
Продолжительность: 01:51:20
Перевод: Дублированный [Лицензия]-Режиссёр: Роберт Швентке-В ролях: Брюс Уиллис, Морган Фриман, Джон Малкович, Хелен Миррен, Мэри-Луиз Паркер, Карл Урбан, Брайан Кокс, Ричард Дрейфусс, Ребекка Пиджон, Крис Оуенс...- - Фрэнк Мозес, экс-агент супергруппы ЦРУ, живет теперь мирной и тихой жизнью. Но прошлое настигает его: как-то утром загадочный киллер пытается лишить его жизни. Опытный Фрэнк, конечно, сумел увернуться от пули, но сразу понял, что дело «табак». Кто же поможет справиться с командой ликвидаторов? Конечно, бывшие напарники: харизматичный Джо Мэтисон и параноик Марвин Боггс. Прекрасный повод тряхнуть стариной! -- --Качество видео: BDRip 720p
Формат видео: MKV
Видео кодек: H.264
Аудио кодек: AC3
Видео: 1280x536 (2.40:1), 23.976 fps, MPEG-4 AVC, ~4900 kbps avg, 0.298 bit/pixel
Аудио #1: [RUS] 48.0 kHz, AC3 Dolby Digital, 5.1 (L,C,R,l,r) + LFE ch, ~448.00 kbps avg
Аудио #2: [ENG] 48.0 kHz, AC3 Dolby Digital, 5.1 (L,C,R,l,r) + LFE ch, ~448.00 kbps avg
Субтитры: русские, английские (встроенные, отключаемые)--

Media Info:

General
Unique ID : 213067068764623669566838659621658352155 (0xA04B398BD0AF7A00A89B5DFC92A0DA1B)
Complete name : C:\Users\Рипы\Red.Dilogy.[ElectRoStyLe]\Red.2010.[ElectRoStyLe].mkv
Format : Matroska
Format version : Version 1
File size : 4.51 GiB
Duration : 1h 51mn
Overall bit rate : 5 794 Kbps
Encoded date : UTC 2013-12-23 05:30:39
Writing application : mkvmerge v2.2.0 ('Turn It On Again') built on Mar 4 2008 13:20:25
Writing library : libebml v0.7.7 + libmatroska v0.8.1
Video
ID : 1
Format : AVC
Format/Info : Advanced Video Codec
Format profile : High@L4.1
Format settings, CABAC : Yes
Format settings, ReFrames : 9 frames
Codec ID : V_MPEG4/ISO/AVC
Duration : 1h 51mn
Bit rate : 4 900 Kbps
Width : 1 280 pixels
Height : 536 pixels
Display aspect ratio : 2.40:1
Frame rate mode : Constant
Frame rate : 23.976 fps
Color space : YUV
Chroma subsampling : 4:2:0
Bit depth : 8 bits
Scan type : Progressive
Bits/(Pixel*Frame) : 0.298
Stream size : 3.72 GiB (83%)
Writing library : x264 core 130 r2273 b3065e6
Encoding settings : cabac=1 / ref=9 / deblock=1:-3:-3 / analyse=0x3:0x133 / me=umh / subme=11 / psy=1 / psy_rd=1.00:0.10 / mixed_ref=1 / me_range=32 / chroma_me=1 / trellis=2 / 8x8dct=1 / cqm=0 / deadzone=21,11 / fast_pskip=1 / chroma_qp_offset=-3 / threads=6 / lookahead_threads=3 / sliced_threads=0 / nr=0 / decimate=1 / interlaced=0 / bluray_compat=0 / constrained_intra=0 / bframes=8 / b_pyramid=2 / b_adapt=2 / b_bias=0 / direct=3 / weightb=1 / open_gop=0 / weightp=2 / keyint=250 / keyint_min=23 / scenecut=40 / intra_refresh=0 / rc_lookahead=60 / rc=2pass / mbtree=1 / bitrate=4900 / ratetol=1.0 / qcomp=0.60 / qpmin=10 / qpmax=69 / qpstep=4 / cplxblur=20.0 / qblur=0.5 / ip_ratio=1.40 / aq=1:1.00
Language : English
Default : Yes
Forced : No
Audio #1
ID : 2
Format : AC-3
Format/Info : Audio Coding 3
Mode extension : CM (complete main)
Format settings, Endianness : Big
Codec ID : A_AC3
Duration : 1h 51mn
Bit rate mode : Constant
Bit rate : 448 Kbps
Channel(s) : 6 channels
Channel positions : Front: L C R, Side: L R, LFE
Sampling rate : 48.0 KHz
Bit depth : 16 bits
Compression mode : Lossy
Stream size : 357 MiB (8%)
Title : Dub
Language : Russian
Default : Yes
Forced : No
Audio #2
ID : 3
Format : AC-3
Format/Info : Audio Coding 3
Mode extension : CM (complete main)
Format settings, Endianness : Big
Codec ID : A_AC3
Duration : 1h 51mn
Bit rate mode : Constant
Bit rate : 448 Kbps
Channel(s) : 6 channels
Channel positions : Front: L C R, Side: L R, LFE
Sampling rate : 48.0 KHz
Bit depth : 16 bits
Compression mode : Lossy
Stream size : 357 MiB (8%)
Title : Original
Language : English
Default : No
Forced : No
Text #1
ID : 4
Format : UTF-8
Codec ID : S_TEXT/UTF8
Codec ID/Info : UTF-8 Plain Text
Language : Russian
Default : No
Forced : No
Text #2
ID : 5
Format : UTF-8
Codec ID : S_TEXT/UTF8
Codec ID/Info : UTF-8 Plain Text
Language : English
Default : No
Forced : No
Menu
00:00:00.000 : en:1. The Check Is in the Mail
00:07:11.264 : en:2. They Know I Like You
00:14:03.425 : en:3. Total Black Out
00:20:53.460 : en:4. You Really Are CIA
00:24:06.570 : en:5. Not My Best First Date
00:29:10.457 : en:6. Tagged Him RED
00:35:56.571 : en:7. She Called Me An Old Man
00:43:26.687 : en:8. Hot Here for the Vodka
00:49:12.532 : en:9. Breaking Into the CIA
00:55:56.936 : en:10. Getting the Band Back Together
01:03:12.121 : en:11. A Little Girl Time
01:09:42.011 : en:12. How's Retirement?
01:15:24.269 : en:13. You're At My House
01:20:52.180 : en:14. Vice President Stanton
01:27:14.103 : en:15. Secondary Exit
01:33:04.787 : en:16. I Remember the Secret Service Being Tougher
01:38:31.906 : en:17. Wanna Get Pancakes?
01:43:16.648 : en:18. Greetings From Moldova

Скриншоты:

       

РЭД 2 / RED 2:

--РЭД 2 / RED 2-«Отдохнём на том свете»-- Год выпуска: 2013
Страна: США, Франция, Канада
Жанр: боевик, комедия
Продолжительность: 01:55:49
Перевод: Дублированный [Лицензия]-Режиссёр: Дин Паризо-В ролях: Брюс Уиллис, Джон Малкович, Мэри-Луиз Паркер, Бён Хон Ли, Хелен Миррен, Энтони Хопкинс, Кэтрин Зета-Джонс, Дэвид Тьюлис, Нил МакДонаф, Ли Асквит-Коу...- - Вышедший на пенсию тайный агент ЦРУ Фрэнк Мозес объединяется с командой старых друзей, элитных оперативников, с целью найти пропавшее оружие массового уничтожения. Чтобы его заполучить, придётся прорываться сквозь армии безжалостных наёмников, террористов и всегда жаждущих власти политиков.
Миссия приводит Фрэнка и его разношёрстную команду вышедших на пенсию убийц в Париж, Лондон и Москву. В их арсенале есть только хитрость, старая сноровка и помощь друг друга, чтобы спасти мир и при этом самим остаться в живых.
-- --Качество видео: BDRip 720p
Формат видео: MKV
Видео кодек: H.264
Аудио кодек: AC3
Видео: 1280x536 (2.40:1), 23.976 fps, MPEG-4 AVC, ~4500 kbps avg, 0.274 bit/pixel
Аудио #1: [RUS] 48.0 kHz, AC3 Dolby Digital, 5.1 (L,C,R,l,r) + LFE ch, ~448.00 kbps avg
Аудио #2: [ENG] 48.0 kHz, AC3 Dolby Digital, 5.1 (L,C,R,l,r) + LFE ch, ~448.00 kbps avg
Субтитры: русские, английские (2 вида) (встроенные, отключаемые)--

Media Info:

General
Unique ID : 217179349679256692902138522090772928095 (0xA36338A621F3BEE7B55F7D0CB8E8965F)
Complete name : C:\Users\Рипы\Red.2.2013.[ElectRoStyLe].mkv
Format : Matroska
Format version : Version 1
File size : 4.36 GiB
Duration : 1h 55mn
Overall bit rate : 5 394 Kbps
Encoded date : UTC 2013-12-23 04:13:54
Writing application : mkvmerge v2.2.0 ('Turn It On Again') built on Mar 4 2008 13:20:25
Writing library : libebml v0.7.7 + libmatroska v0.8.1
Video
ID : 1
Format : AVC
Format/Info : Advanced Video Codec
Format profile : High@L4.1
Format settings, CABAC : Yes
Format settings, ReFrames : 9 frames
Codec ID : V_MPEG4/ISO/AVC
Duration : 1h 55mn
Bit rate : 4 500 Kbps
Width : 1 280 pixels
Height : 536 pixels
Display aspect ratio : 2.40:1
Frame rate mode : Constant
Frame rate : 23.976 fps
Color space : YUV
Chroma subsampling : 4:2:0
Bit depth : 8 bits
Scan type : Progressive
Bits/(Pixel*Frame) : 0.274
Stream size : 3.55 GiB (81%)
Writing library : x264 core 130 r2273 b3065e6
Encoding settings : cabac=1 / ref=9 / deblock=1:-3:-3 / analyse=0x3:0x133 / me=umh / subme=11 / psy=1 / psy_rd=1.00:0.10 / mixed_ref=1 / me_range=32 / chroma_me=1 / trellis=2 / 8x8dct=1 / cqm=0 / deadzone=21,11 / fast_pskip=1 / chroma_qp_offset=-3 / threads=6 / lookahead_threads=3 / sliced_threads=0 / nr=0 / decimate=1 / interlaced=0 / bluray_compat=0 / constrained_intra=0 / bframes=8 / b_pyramid=2 / b_adapt=2 / b_bias=0 / direct=3 / weightb=1 / open_gop=0 / weightp=2 / keyint=250 / keyint_min=23 / scenecut=40 / intra_refresh=0 / rc_lookahead=60 / rc=2pass / mbtree=1 / bitrate=4500 / ratetol=1.0 / qcomp=0.60 / qpmin=10 / qpmax=69 / qpstep=4 / cplxblur=20.0 / qblur=0.5 / ip_ratio=1.40 / aq=1:1.00
Language : English
Default : Yes
Forced : No
Audio #1
ID : 2
Format : AC-3
Format/Info : Audio Coding 3
Mode extension : CM (complete main)
Format settings, Endianness : Big
Codec ID : A_AC3
Duration : 1h 55mn
Bit rate mode : Constant
Bit rate : 448 Kbps
Channel(s) : 6 channels
Channel positions : Front: L C R, Side: L R, LFE
Sampling rate : 48.0 KHz
Bit depth : 16 bits
Compression mode : Lossy
Stream size : 371 MiB (8%)
Title : Dub
Language : Russian
Default : Yes
Forced : No
Audio #2
ID : 3
Format : AC-3
Format/Info : Audio Coding 3
Mode extension : CM (complete main)
Format settings, Endianness : Big
Codec ID : A_AC3
Duration : 1h 55mn
Bit rate mode : Constant
Bit rate : 448 Kbps
Channel(s) : 6 channels
Channel positions : Front: L C R, Side: L R, LFE
Sampling rate : 48.0 KHz
Bit depth : 16 bits
Compression mode : Lossy
Stream size : 371 MiB (8%)
Title : Original
Language : English
Default : No
Forced : No
Text #1
ID : 4
Format : UTF-8
Codec ID : S_TEXT/UTF8
Codec ID/Info : UTF-8 Plain Text
Language : Russian
Default : No
Forced : No
Text #2
ID : 5
Format : UTF-8
Codec ID : S_TEXT/UTF8
Codec ID/Info : UTF-8 Plain Text
Language : English
Default : No
Forced : No
Text #3
ID : 6
Format : UTF-8
Codec ID : S_TEXT/UTF8
Codec ID/Info : UTF-8 Plain Text
Language : English
Default : No
Forced : No
Menu
00:00:00.000 : en:(01)00:00:00:000
00:08:20.093 : en:(02)00:08:20:093
00:14:50.192 : en:(03)00:14:50:192
00:21:19.497 : en:(04)00:21:19:497
00:28:21.336 : en:(05)00:28:21:336
00:39:39.888 : en:(06)00:39:39:888
00:47:13.424 : en:(07)00:47:13:424
00:54:21.560 : en:(08)00:54:21:560
01:00:10.325 : en:(09)01:00:10:325
01:07:36.021 : en:(10)01:07:36:021
01:11:37.804 : en:(11)01:11:37:804
01:18:41.769 : en:(12)01:18:41:769
01:23:05.282 : en:(13)01:23:05:282
01:27:50.067 : en:(14)01:27:50:067
01:35:41.454 : en:(15)01:35:41:454
01:41:33.306 : en:(16)01:41:33:306
01:45:13.025 : en:(17)01:45:13:025
01:46:48.913 : en:(18)01:46:48:913
01:55:02.372 : en:(19)01:55:02:372

Скриншоты:

       
-- --

_________________

===============================
IGNOSCITO SAEPE ALTERI, NUNQUAM TIBI
Вне форума [Профиль] [ЛС]
Показать сообщения:    
Ответить на тему

Текущее время: Сегодня 12:16

Часовой пояс: GMT + 3



Вы не можете начинать темы
Вы не можете отвечать на сообщения
Вы не можете редактировать свои сообщения
Вы не можете удалять свои сообщения
Вы не можете голосовать в опросах
Вы не можете прикреплять файлы к сообщениям
Вы не можете скачивать файлы