Сегодня идет свободное скачивание без начисления Download

Гриффины / Family Guy / Сезон: 11 / Серии: 1 (22) (Сет МакФарлейн / Seth MacFarlane) [2012, Ситком, чёрный юмор, буффонада, комедия, пародия, WEB-DL 1080p] 2xMVO (2x2, Filiza Studio) + Original

Ответить на тему
 
Автор
Сообщение

Omen ®

Стаж: 5 лет

Сообщений: 190529

Торрент-статистика

Пост 27-Авг-2014 14:00

[Цитировать]

-Оригинальное название: Family Guy
Русское название: Гриффины
Год выпуска: 2012
Страна: США
Жанр: Ситком, чёрный юмор, буффонада, комедия, пародия
Продолжительность: ~22 минуты (серия)
Перевод:
  • Профессиональный (многоголосый закадровый) студия "ZoneVision" по заказу [Олег Форостенко, Илья Хвостиков, Людмила Ильина.],
  • Профессиональный (многоголосый закадровый) Filiza Studio [Света, darkFIL, Little, Nika Lenina, Say, Надежда Серганова, LocDog, Rise, Герман Шустов, Алексей Колисниченко (SunSay), Александр Чернов, JonEA, Uncle Michael, Ильяс Векилов, Трина Дубовицкая, Елена Фадеева + Дориана Грей, Лилиана Скрипко и Дмитрий Рыбин.]
Сэмпл: скачать-Производство: FOX
Режиссёр: Сет МакФарлейн / Seth MacFarlane-Роли озвучивали: Сет МакФарлейн, Алекс Борштейн, Сет Грин, Мила Кунис, Майк Генри и другие.-Описание: "Гриффины" (Family Guy) - анимационное ТВ-Шоу, созданное Сетом МакФарлейном (Seth MacFarlane) для телеканала FOX. Как нетрудно догадаться, главными героями шоу является семейка Гриффинов: тупой, но полный сумашедших идей, составляющих львиную долю шуток сериала, отец семейства Питер; его любящя и терпеливая жена Лойс, всеми силами пытающаяся превратить Гриффинов в нормальную семью; их интеллектуально развитый не по годам, вынашивающий идею мирового господства младший сын Стьюи; дочь-ботаник, обречённая из-за этого на одиночество и непонимание как в школе так и дома, Мэг; и 13-ти летний отсталый в развитии лет на 10, сын Крис. Также полноценным членом семьи является пёс Брайн - склонный к меланхолии эстет, спокойно наблюдающий с бокалом вина в лапе над приключениями Питера и остальных членов семьи (и это при всём притом, что остальные собаки в сериале не являются очеловеченными).-РЕЛИЗ ОТ: V.SERIJ2013-Спасибо #Antisnl# за запись звука, a6apuc за сборку озвучки Filiza Studio и v.serij2013 (т.е., мне) за синхронизацию аудиодорожки 2x2.-Качество: WEB-DL 1080p
Формат: MKV
Видео кодек: h264
Аудио кодек: AC3
Видео: MPEG4 Video (H264) 1912x1072, 23.976fps, ~5Mbps, 0.100 bit/pixel
Аудио:
  • русская [2x2]: Dolby AC3 48000Hz stereo 192Kbps,
    русская [Filiza Studio]: Dolby AC3 48000Hz stereo 192Kbps,
  • английская: Dolby AC3 48000Hz 6ch 384Kbps
--Скриншоты:
-

Список серий

11 сезон (2012 год):
01. Into Fat Air

Media Info

Код:
General
UniqueID                         : 219371023335669631042220744009060020907 (0xA5095280C3EFBBDAA1B8449DFE1972AB)
Complete name                    : F:\Мои документы\Вадим\Моё видео (Вадим)\HD\Animated Series (HD)\Family Guy (HD)\Family Guy Season 11 (WEB-DL 1080p)\01. Into Fat Air.mkv
Format                           : Matroska
File size                        : 893 MiB
Duration                         : 21mn 37s
Overall bit rate                 : 5 774 Kbps
Encoded date                     : UTC 2014-08-25 22:57:00
Writing application              : mkvmerge v5.8.0 ('No Sleep / Pillow') built on Sep  2 2012 15:37:04
Writing library                  : libebml v1.2.3 + libmatroska v1.3.0
Video
ID                               : 1
Format                           : AVC
Format/Info                      : Advanced Video Codec
Format profile                   : High@L4.0
Format settings, CABAC           : Yes
Format settings, ReFrames        : 4 frames
Codec ID                         : V_MPEG4/ISO/AVC
Duration                         : 21mn 37s
Bit rate mode                    : Variable
Bit rate                         : 4 892 Kbps
Width                            : 1 912 pixels
Height                           : 1 072 pixels
Display aspect ratio             : 16:9
Frame rate                       : 23.976 fps
Color space                      : YUV
Chroma subsampling               : 4:2:0
Bit depth                        : 8 bits
Scan type                        : Progressive
Bits/(Pixel*Frame)               : 0.100
Stream size                      : 757 MiB (85%)
Language                         : English
Color primaries                  : BT.709-5, BT.1361, IEC 61966-2-4, SMPTE RP177
Transfer characteristics         : BT.709-5, BT.1361
Matrix coefficients              : BT.709-5, BT.1361, IEC 61966-2-4 709, SMPTE RP177
Audio #1
ID                               : 2
Format                           : AC-3
Format/Info                      : Audio Coding 3
Mode extension                   : CM (complete main)
Codec ID                         : A_AC3
Duration                         : 21mn 37s
Bit rate mode                    : Constant
Bit rate                         : 192 Kbps
Channel(s)                       : 2 channels
Channel positions                : Front: L R
Sampling rate                    : 48.0 KHz
Bit depth                        : 16 bits
Compression mode                 : Lossy
Stream size                      : 29.7 MiB (3%)
Title                            : 2x2
Language                         : Russian
Audio #2
ID                               : 3
Format                           : AC-3
Format/Info                      : Audio Coding 3
Mode extension                   : CM (complete main)
Codec ID                         : A_AC3
Duration                         : 21mn 37s
Bit rate mode                    : Constant
Bit rate                         : 192 Kbps
Channel(s)                       : 2 channels
Channel positions                : Front: L R
Sampling rate                    : 48.0 KHz
Bit depth                        : 16 bits
Compression mode                 : Lossy
Stream size                      : 29.7 MiB (3%)
Title                            : Filiza Studio
Language                         : Russian
Audio #3
ID                               : 4
Format                           : AC-3
Format/Info                      : Audio Coding 3
Mode extension                   : CM (complete main)
Codec ID                         : A_AC3
Duration                         : 21mn 37s
Bit rate mode                    : Constant
Bit rate                         : 384 Kbps
Channel(s)                       : 6 channels
Channel positions                : Front: L C R, Side: L R, LFE
Sampling rate                    : 48.0 KHz
Bit depth                        : 16 bits
Compression mode                 : Lossy
Video delay                      : 4ms
Stream size                      : 59.4 MiB (7%)
Title                            : Original
Language                         : English
Text
ID                               : 5
Format                           : UTF-8
Codec ID                         : S_TEXT/UTF8
Codec ID/Info                    : UTF-8 Plain Text
Title                            : 2x2 (UNCUT)
Language                         : Russian
[/spoiler]
-
Вне форума [Профиль] [ЛС]
Показать сообщения:    
Ответить на тему

Текущее время: Сегодня 06:47

Часовой пояс: GMT + 3



Вы не можете начинать темы
Вы не можете отвечать на сообщения
Вы не можете редактировать свои сообщения
Вы не можете удалять свои сообщения
Вы не можете голосовать в опросах
Вы не можете прикреплять файлы к сообщениям
Вы не можете скачивать файлы