Today is a free download without charge Download

(Thrash Metal) [CD] Catalepsy - Dragged Inside Out - 1994, FLAC (image+.cue), lossless

Reply to topic
 
Author
Message

Omen ®

Longevity: 8 years 3 months

Posts: 181087

Торрент-статистика

Post 17-Aug-2014 14:02

[Quote]

Catalepsy / Dragged Inside Out
Жанр: Thrash Metal
Носитель: CD
Год издания: 1994
Издатель (лейбл): Fruitcake Productions
Номер по каталогу: FP001
Страна: Belgium
Аудиокодек: FLAC (*.flac)
Тип рипа: image+.cue
Битрейт аудио: lossless
Продолжительность: 00:55
Источник (релизер): мой CD
Наличие сканов в содержимом раздачи: да
Треклист:
1. Speed it up 04:11
2. Dishwasher 03:30
3. Through Glass 06:02
4. Valentine's Day 03:04
5. Rust 03:42
6. Daddy's Kind 03:27
7. Buttsucker 02:54
8. Green 04:18
9. Blinded 05:01
10. Going Cold 05:16
11. Paint The Town 14:16

Лог создания рипа

Exact Audio Copy V0.99 prebeta 5 from 4. May 2009
Отчёт EAC об извлечении, выполненном 19. ноября 2013, 17:28
Catalepsy / Dragged Inside Out
Дисковод: MATSHITADVD-RAM UJ8A0AS Adapter: 0 ID: 1
Режим чтения : ДостоверностьИспользование точного потока : ДаОтключение кэша аудио : ДаИспользование указателей C2 : Нет
Коррекция смещения при чтении : 102Способность читать области Lead-in и Lead-out : НетЗаполнение пропущенных сэмплов тишиной : ДаУдаление блоков с тишиной в начале и конце : НетПри вычислениях CRC использовались нулевые сэмплы : ДаИнтерфейс : Встроенный Win32-интерфейс для Win NT/2000
Выходной формат : Пользовательский кодировщикВыбранный битрейт : 1024 kBit/sКачество : ВысокийДобавление ID3-тэга : НетУтилита сжатия : C:\Program Files\Exact Audio Copy\FLAC\FLAC.EXEДополнительные параметры : -6 -V -T "ARTIST=%a" -T "TITLE=%t" -T "ALBUM=%g" -T "DATE=%y" -T "TRACKNUMBER=%n" -T "GENRE=%m" -T "COMMENT=%e" %s -o %d
TOC извлечённого CD
Трек | Старт | Длительность | Начальный сектор | Конечный сектор --------------------------------------------------------------------- 1 | 0:00.30 | 4:11.37 | 30 | 18891 2 | 4:11.67 | 3:30.38 | 18892 | 34679 3 | 7:42.30 | 6:02.55 | 34680 | 61884 4 | 13:45.10 | 3:04.14 | 61885 | 75698 5 | 16:49.24 | 3:42.74 | 75699 | 92422 6 | 20:32.23 | 3:27.67 | 92423 | 108014 7 | 24:00.15 | 2:54.60 | 108015 | 121124 8 | 26:55.00 | 4:18.40 | 121125 | 140514 9 | 31:13.40 | 5:01.21 | 140515 | 163110 10 | 36:14.61 | 5:16.35 | 163111 | 186845 11 | 41:31.21 | 14:16.58 | 186846 | 251103
Характеристики диапазона извлечения и сообщения об ошибках
Выбранный диапазон
Имя файла C:\Users\эксперт\Music\Catalepsy - Dragged Inside Out.wav
Пиковый уровень 98.2 % Качество диапазона 100.0 % CRC копии EFC99AEC Копирование... OK
Ошибок не произошло
AccurateRip: сводка
Трек 1 точное извлечение (доверие 1) [2F7DACB5]Трек 2 точное извлечение (доверие 1) [9ACE6B15]Трек 3 точное извлечение (доверие 1) [F1A25DC4]Трек 4 точное извлечение (доверие 1) [030D2DB8]Трек 5 точное извлечение (доверие 1) [CB75135A]Трек 6 точное извлечение (доверие 1) [BDDA12E1]Трек 7 точное извлечение (доверие 1) [947A056C]Трек 8 точное извлечение (доверие 1) [0EED4267]Трек 9 точное извлечение (доверие 1) [DB0DF64D]Трек 10 точное извлечение (доверие 1) [14E36026]Трек 11 точное извлечение (доверие 1) [F6F285F6]
Все треки извлечены точно
Конец отчёта

Содержание индексной карты (.CUE)

REM GENRE "Thrash Metal"REM DATE 1994REM DISCID 890D140BREM COMMENT "ExactAudioCopy v0.99pb5"PERFORMER "Catalepsy"TITLE "Dragged Inside Out"FILE "Catalepsy - Dragged Inside Out.flac" WAVE TRACK 01 AUDIO TITLE "Speed it up" PERFORMER "Catalepsy" FLAGS DCP INDEX 00 00:00:00 INDEX 01 00:00:30 TRACK 02 AUDIO TITLE "Dishwasher" PERFORMER "Catalepsy" FLAGS DCP INDEX 01 04:11:67 TRACK 03 AUDIO TITLE "Through Glass" PERFORMER "Catalepsy" FLAGS DCP INDEX 01 07:42:30 TRACK 04 AUDIO TITLE "Valentine's Day" PERFORMER "Catalepsy" FLAGS DCP INDEX 01 13:45:10 TRACK 05 AUDIO TITLE "Rust" PERFORMER "Catalepsy" FLAGS DCP INDEX 01 16:49:24 TRACK 06 AUDIO TITLE "Daddy's kind" PERFORMER "Catalepsy" FLAGS DCP INDEX 01 20:32:23 TRACK 07 AUDIO TITLE "Buttsucker" PERFORMER "Catalepsy" FLAGS DCP INDEX 01 24:00:15 TRACK 08 AUDIO TITLE "Green" PERFORMER "Catalepsy" FLAGS DCP INDEX 01 26:55:00 TRACK 09 AUDIO TITLE "Blinded" PERFORMER "Catalepsy" FLAGS DCP INDEX 01 31:13:40 TRACK 10 AUDIO TITLE "Going Cold" PERFORMER "Catalepsy" FLAGS DCP INDEX 01 36:14:61 TRACK 11 AUDIO TITLE "Paint The Town" PERFORMER "Catalepsy" FLAGS DCP INDEX 01 41:31:21

Об исполнителе (группе)

http://www.metal-archives.com/bands/Catalepsy/24202

Состав

Wannes De Coninck - vocals,guitars
Christian Z. - drums
Manuel Rios - lead guitar
Steve - bass
Other forum [Profile] [PM]
Similar theme
Forum Topic Author Torrent Replies Last Post
./templates/default/images/folder_dl.gif Metal (Thrash Metal) Kat - Metal And Hell - 1985 (2003 Re-Issue), FLAC (image+.cue), lossless Omen
1 | 0

0 | 1249

3

2013-10-08 00:55
Omen Latest
./templates/default/images/folder_dl.gif Metal (Thrash Metal) [CD] Faith Or Fear - Instruments Of Death - 2009, FLAC (image+.cue), lossless Omen
1 | 0

0 | 2492

11

2014-05-17 11:01
Omen Latest
./templates/default/images/folder_dl.gif Metal (Thrash Metal) [CD] Catalepsy - Fruitcakes We Have Known - 1993, FLAC (image+.cue), lossless Omen
1 | 0

0 | 443

0

2014-09-07 17:54
Omen Latest
./templates/default/images/folder_dl.gif Metal (Thrash Metal) [CD] Accu§er (Accuser) - Double Talk [Reissue 1997, Remastered] - 1991, FLA - 1991, FLAC (image + .cue), lossless Kaustikk
1 | 0

1 | 4323

0

2018-02-05 20:55
Kaustikk Latest
Display posts from previous:    
Reply to topic

The time now is: Today 00:34

All times are GMT + 3 Hours



You cannot post new topics in this forum
You cannot reply to topics in this forum
You cannot edit your posts in this forum
You cannot delete your posts in this forum
You cannot vote in polls in this forum
You cannot attach files in this forum
You cannot download files in this forum