Сегодня идет свободное скачивание без начисления Download

Будни аэропорта [Серии 01-52 из 52] (Ольга Баулина, Роман Козич) [2014, Мультсериал, Познавательный, Детский, WEBRip] 720p

Ответить на тему
 
Автор
Сообщение

sashau ®

Пол:

Стаж: 5 лет 11 месяцев

Сообщений: 3569

Торрент-статистика

Пост 11-Авг-2014 19:26

[Цитировать]

Будни аэропорта - Год выпуска: 2014
Производство: Россия / Теремок ТВ
Режиссёр: Ольга Баулина, Роман Козич
Жанр: Мультсериал, Познавательный, Детский
Описание:
Влиться в новый коллектив и найти себе там друзей бывает совсем не просто. С этим столкнулся наш главный герой - юный самолётик Винки, который покинул родной дом, чтобы впервые начать самостоятельно работать. Он прибывает в большой аэропорт Манго, где сразу сталкивается с проблемами новичка. Здесь всё такое незнакомое и непривычное, что поначалу Винки не смог даже толком приземлится на взлётную полосу. Более того, другие самолёты оказались не очень приветливы, однако нашлись и те, кто был рад помочь новому сотруднику и вскоре у Винки появились первые друзья.
Продолжительность: Серия по ~ 00:08:00
Качество видео: WEBRip 720p
Перевод: Не требуется
Видеокодек: MPEG-4 AVC/H.264
Битрейт видео: ~2455 Кбит/сек
Размер кадра: 1280x720
Аудиокодек: AC3 2.0
Битрейт аудио: 192 Кбит/сек

Список серий:

01. Винки прибывает!
02. Новый дом винки
03. Я мечтаю облететь весь мир
04. Урок для тайфуна
05. Любовь на крыльях Или
06. Наш новый друг Эмили
07. Винки и звезда
08. Мой новый знакомый спутник
09. Винки и небесные маяки
10. Или и сердце
11. Тучка - заклинатель дождя
12. Винки и Эмили в поисках приключений
13. Птица в аэропорту
14. Цветочная клумба Лавеле
15. Мои наставники фонарики
16. Соблюдай правила, Тайфун!
17. Планер парящий малыш
18. Плавучий остров
19. Легендарный самолет
20. Дельфиненок возвращается домой
21. Тайфун и попугай
22. Опасные мелочи
23. Винки родился
24. Как мы спасались от жары
25. Замечательные друзья
26. Блинк наводит блеск
27. Малышка Чо-Чо
28. Тайфун и Лавеве
29. Игра для Джи Пи Ю
30. Страшные-страншые молнии
31. Поймать вора
32. Двое вместе!
33. Происшествие с Джи Пи Ю
34. Гордость аэропорта Манго
35. Песенка для Лон-Лона
36. Как перехитрить время
37. Лучшее шоу на свете
38. Пожарный переполох
39. Гугу - хранитель картин
40. Лучшая команда в мире
41. Бонита и букет цветов
42. Маскарад
43. Экзамен по безопасной езде
44. Тягач и Линда
45. Поезд Ту-Ту
46. Трудный день Мико
47. Извержение вулкана
48. Остров Черепаха
49. Титан и Винки
50. Вот так находка!
51. Смелее, Пол!
52. Песенка Бена

MediaInfo:

Общее
Уникальный идентификатор : 201875460080234184115390246202186607086 (0x97DFCCA2E49065D7A3DE5BAD4F3329EE)
Формат : Matroska
Версия формата : Version 2
Размер файла : 163 Мбайт
Продолжительность : 8 м. 35 с.
Общий поток : 2649 Кбит/сек
Дата кодирования : UTC 2014-05-07 03:09:14
Программа кодирования : mkvmerge v5.8.0 ('No Sleep / Pillow') built on Sep 2 2012 15:37:04
Библиотека кодирования : libebml v1.2.3 + libmatroska v1.3.0
Видео
Идентификатор : 1
Формат : AVC
Формат/Информация : Advanced Video Codec
Профиль формата : [url=mailto:High@L3.1]High@L3.1[/url]
Параметр CABAC формата : Да
Параметр ReFrames формата : 4 кадра
Идентификатор кодека : V_MPEG4/ISO/AVC
Продолжительность : 8 м. 35 с.
Битрейт : 2455 Кбит/сек
Ширина : 1280 пикселей
Высота : 720 пикселей
Соотношение сторон : 16:9
Режим частоты кадров : Постоянный
Частота кадров : 25,000 кадров/сек
Цветовое пространство : YUV
Субдискретизация насыщенности : 4:2:0
Битовая глубина : 8 бит
Тип развёртки : Прогрессивная
Бит/(Пиксели*Кадры) : 0.107
Размер потока : 148 Мбайт (91%)
Библиотека кодирования : x264 core 125 r2208 d9d2288
Настройки программы : cabac=1 / ref=2 / deblock=1:-2:-2 / analyse=0x3:0x133 / me=umh / subme=9 / psy=1 / psy_rd=1.15:0.25 / mixed_ref=1 / me_range=24 / chroma_me=1 / trellis=2 / 8x8dct=1 / cqm=0 / deadzone=21,11 / fast_pskip=0 / chroma_qp_offset=-4 / threads=6 / lookahead_threads=1 / sliced_threads=0 / nr=0 / decimate=0 / interlaced=0 / bluray_compat=0 / constrained_intra=0 / bframes=2 / b_pyramid=2 / b_adapt=2 / b_bias=0 / direct=3 / weightb=1 / open_gop=0 / weightp=2 / keyint=250 / keyint_min=25 / scenecut=40 / intra_refresh=0 / rc=2pass / mbtree=0 / bitrate=2455 / ratetol=1.0 / qcomp=0.75 / qpmin=0 / qpmax=69 / qpstep=4 / cplxblur=20.0 / qblur=0.5 / ip_ratio=1.40 / pb_ratio=1.30 / aq=2:0.80
Язык : Russian
Default : Да
Forced : Нет
Основные цвета : BT.709
Характеристики трансфера : BT.709
Коэффициенты матрицы : BT.709
Аудио
Идентификатор : 2
Формат : AC-3
Формат/Информация : Audio Coding 3
Расширение режима : CM (complete main)
Параметр Endianness формата : Big
Идентификатор кодека : A_AC3
Продолжительность : 8 м. 35 с.
Вид битрейта : Постоянный
Битрейт : 192 Кбит/сек
Каналы : 2 канала
Расположение каналов : Front: L R
Частота : 48,0 КГц
Битовая глубина : 16 бит
Метод сжатия : С потерями
Размер потока : 11,8 Мбайт (7%)
Язык : Russian
Default : Да
Forced : Нет
Скриншоты:          
         
Вне форума [Профиль] [ЛС]

Геннадич

Пол:

Стаж: 4 года 4 месяца

Сообщений: 1159

Торрент-статистика

Пост 11-Авг-2014 19:31 (спустя 5 минут)

[Цитировать]

Добавил режиссеров и немного поменял тему

_________________
Вне форума [Профиль] [ЛС]
Похожие темы
Форум Тема Автор Торрент Отв. Посл. сообщение
./templates/default/images/folder_dl.gif Фантастика, фэнтези, ужасы, мистика Матвей Курилкин | Будни имперской разведки (2017) [FB2] }{@R0N
1 | 0

0 | 927

3

Вчера 20:52
}{@R0N Последнее
Показать сообщения:    
Ответить на тему

Текущее время: Сегодня 16:16

Часовой пояс: GMT + 3



Вы не можете начинать темы
Вы не можете отвечать на сообщения
Вы не можете редактировать свои сообщения
Вы не можете удалять свои сообщения
Вы не можете голосовать в опросах
Вы не можете прикреплять файлы к сообщениям
Вы не можете скачивать файлы