Сегодня идет свободное скачивание без начисления Download

Финес и Ферб / Phineas and Ferb / Сезон: 2 / Полный (38) (Зак Монкриф / Zac Moncrief) [2009, Мультфильм, WEB-DLRip] DUB

Ответить на тему
 
Автор
Сообщение

JVC ®

Пол:

Стаж: 6 лет 11 месяцев

Сообщений: 341

Торрент-статистика

Пост 09-Янв-2012 12:03

[Цитировать]

Финес и Ферб / Phineas and Ferb
Сезон 2 / Серии 1-38 из 38
Страна: США
Жанр: Комедия, Семейный, Мультфильм
Продолжительность: ~22 мин/серия
Год выпуска: 2009
Перевод: Профессиональный (дублированный)
Русские субтитры: нет
Режиссёр: Роберт Хьюз / Robert Hughes, Зак Монкриф / Zac Moncrief
Роли озвучивали: Дмитрий Череватенко, Виктория Казанцева, Дмитрий Корюков, Мария Болтнева, Антон Батырев
Описание: Мультсериал о двух сводных братьях на летних каникулах, живущих в пригороде. Каждый день они придумывают безумные планы и строят невероятные изобретения, из-за чего они часто конфликтуют со своей сестрой Кэндес, которая жалуется маме. Наряду с этим домашний любимец мальчиков утконос Пэрри, действующий как секретный агент, пытается все время остановить злейшего, но придурковатого учёного по имени Хайнц Фуфелшмерц.-Качество: WEB-DLRip
Формат: AVI
Видео: 720x400, 23.976 fps, XviD MPEG-4 1530 kbps, 0.24 bit/pixel
Аудио 1: Русский, AC3 Dolby Digital, 48 kHz, 2 ch, 192 kbps
Аудио 2: Английский, AC3 Dolby Digital, 48 kHz, 2 ch, 192 kbps

Список серий

ФиФ.S02E01.Лохноское Чудовище.-SBRO.avi
ФиФ.S02E02.Интервью с Утконосом_Слово Дня.-SBRO.avi
ФиФ.S02E03.Нападение 50-футовой Сестры_Аквафеерия.-SBRO.avi
ФиФ.S02E04.День Ожившего Желе_Элементарно, Дорогая Стейси.-SBRO.avi
ФиФ.S02E05.Не Вздумай Моргать_У Утконоса.-SBRO.avi
ФиФ.S02E06.Перри Снес Яйцо_Реальная Виртуальность.-SBRO.avi
ФиФ.S02E07.Хроники Мипа.-SBRO.avi
ФиФ.S02E08.Таддеус и Тор_Самолет, Самолет.-SBRO.avi
ФиФ.S02E09.Твоя Игра_Случай на Мойке.-SBRO.avi
ФиФ.S02E10.А, Вот Ты Где, Перри_Швейцарская Семья Финеса.-SBRO.avi
ФиФ.S02E11.Прятки_Это Тонущее Чувство.-SBRO.avi
ФиФ.S02E12.Балтджитлс_Ванессенсивный Шопинг.-SBRO.avi
ФиФ.S02E13.Больше Никаких Кроликов_Спа-День.-SBRO.avi
ФиФ.S02E14.Квантовый Трипхоп Финеса и Ферба.-SBRO.avi
ФиФ.S02E15.Музыкальный Клиптастический Марафон.-SBRO.avi
ФиФ.S02E16.Полет на Мыльном Пузыре_Изабелла и Храм Древесного Сока.-SBRO.avi
ФиФ.S02E17.Выше Нос, Кендэс_Отрыв По-Гелскаутски.-SBRO.avi
ФиФ.S02E18.КодексЗадиры_В поисках Мэри Макгаффин.-SBRO.avi
ФиФ.S02E19.Скажите Кесо_Танцы до Тошноты.-SBRO.avi
ФиФ.S02E20.В Чем Прикол_Атлантида.-SBRO.avi
ФиФ.S02E21.Рождественские Каникулы.-SBRO.avi
ФиФ.S02E22.Прогулка Сквозь Стены_Звездный Час Кендэс.-SBRO.avi
ФиФ.S02E23.Я был Роботом в Полном Рассвете Сил_Внезапная Сьюзи.-SBRO.avi
ФиФ.S02E24.Карл под Прикрытием_Гип-Гип Парад.-SBRO.avi
ФиФ.S02E25.Вторжение Фербшельцев_Недетский Атракцион.-SBRO.avi
ФиФ.S02E26.Без Финеса и Ферба_Охотники за Финесом и Фербом.-SBRO.avi
ФиФ.S02E27.Говорящие с Ящером_Роботородео.-SBRO.avi
ФиФ.S02E28.Птиц.-SBRO.avi
ФиФ.S02E29.Она-Мэр_Лимонадный Киоск.-SBRO.avi
ФиФ.S02E30.Гавайские Каникулы.-SBRO.avi
ФиФ.S02E31.Лето Твоя Пора.-SBRO.avi
ФиФ.S02E32.Одного Боя Ягода.-SBRO.avi
ФиФ.S02E33.Волшебник Страны Курьёзз.-SBRO.avi
ФиФ.S02E34.Вот это мы называем лабиринт_Знакомьтесь Макс Модем.-SBRO.avi
ФиФ.S02E35.Секрет Успеха_Фуфельная стороны Луны.-SBRO.avi
ФиФ.S02E36.Раздвоение Личности_Утечка Мозгов.-SBRO.avi
ФиФ.S02E37.Американские Горки. Мюзикл.-SBRO.avi
ФиФ.S02E38.Поиграем_Кендэс Наказана.-SBRO.avi

Скриншоты

           

MediaInfo

D:\РАЗДАЧИ\Phineas and Ferb.S02.XviD.WEB-DLRip.Rus.Eng.-SBRO\ФиФ.S01E01.Лохноское Чудовище.-SBRO.avi
General
Complete name : D:\РАЗДАЧИ\Phineas and Ferb.S02.XviD.WEB-DLRip.Rus.Eng.-SBRO\ФиФ.S01E01.Лохноское Чудовище.-SBRO.avi
Format : AVI
Format/Info : Audio Video Interleave
File size : 311 MiB
Duration : 22mn 33s
Overall bit rate : 1 928 Kbps
Writing application : VirtualDubMod 1.5.10.2 (build 2540/release)
Writing library : VirtualDubMod build 2540/release
Video #0
ID : 0
Format : MPEG-4 Visual
Format profile : Advanced Simple@L5
Format settings, BVOP : 1
Format settings, QPel : No
Format settings, GMC : No warppoints
Format settings, Matrix : Default (H.263)
Codec ID : XVID
Codec ID/Hint : XviD
Duration : 22mn 33s
Bit rate : 1 530 Kbps
Width : 720 pixels
Height : 400 pixels
Display aspect ratio : 16:9
Frame rate : 23.976 fps
Color space : YUV
Chroma subsampling : 4:2:0
Bit depth : 8 bits
Scan type : Progressive
Compression mode : Lossy
Bits/(Pixel*Frame) : 0.222
Stream size : 247 MiB (79%)
Writing library : XviD 1.2.0.dev47 (UTC 2006-11-01)
Audio #1
ID : 1
Format : AC-3
Format/Info : Audio Coding 3
Mode extension : CM (complete main)
Codec ID : 2000
Duration : 22mn 33s
Bit rate mode : Constant
Bit rate : 192 Kbps
Channel(s) : 2 channels
Channel positions : Front: L R
Sampling rate : 48.0 KHz
Bit depth : 16 bits
Compression mode : Lossy
Stream size : 31.0 MiB (10%)
Alignment : Split accross interleaves
Interleave, duration : 42 ms (1.00 video frame)
Interleave, preload duration : 500 ms
Audio #2
ID : 2
Format : AC-3
Format/Info : Audio Coding 3
Mode extension : CM (complete main)
Codec ID : 2000
Duration : 22mn 33s
Bit rate mode : Constant
Bit rate : 192 Kbps
Channel(s) : 2 channels
Channel positions : Front: L R
Sampling rate : 48.0 KHz
Bit depth : 16 bits
Compression mode : Lossy
Stream size : 31.0 MiB (10%)
Alignment : Split accross interleaves
Interleave, duration : 42 ms (1.00 video frame)
Interleave, preload duration : 500 ms

_________________
Вне форума [Профиль] [ЛС]
Показать сообщения:    
Ответить на тему

Текущее время: Сегодня 06:04

Часовой пояс: GMT + 3



Вы не можете начинать темы
Вы не можете отвечать на сообщения
Вы не можете редактировать свои сообщения
Вы не можете удалять свои сообщения
Вы не можете голосовать в опросах
Вы не можете прикреплять файлы к сообщениям
Вы не можете скачивать файлы