Сегодня идет свободное скачивание без начисления Download

Финес и Ферб / Phineas and Ferb / Сезон: 1 / Полный (26) (Зак Монкриф / Zac Moncrief) [2007, Мультфильм, WEB-DLRip] DUB

Ответить на тему
 
Автор
Сообщение

JVC ®

Пол:

Стаж: 6 лет 11 месяцев

Сообщений: 341

Торрент-статистика

Пост 09-Янв-2012 11:53

[Цитировать]

Финес и Ферб / Phineas and Ferb
Сезон 1 / Серии 1-26 из 26
Страна: США
Жанр: Комедия, Семейный, Мультфильм
Продолжительность: ~22 мин/серия
Год выпуска: 2007
Перевод: Профессиональный (дублированный)
Русские субтитры: нет
Режиссёр: Роберт Хьюз / Robert Hughes, Зак Монкриф / Zac Moncrief
Роли озвучивали: Дмитрий Череватенко, Виктория Казанцева, Дмитрий Корюков, Мария Болтнева, Антон Батырев
Описание: Мультсериал о двух сводных братьях на летних каникулах, живущих в пригороде. Каждый день они придумывают безумные планы и строят невероятные изобретения, из-за чего они часто конфликтуют со своей сестрой Кэндес, которая жалуется маме. Наряду с этим домашний любимец мальчиков утконос Пэрри, действующий как секретный агент, пытается все время остановить злейшего, но придурковатого учёного по имени Хайнц Фуфелшмерц.--Качество: WEB-DLRip
Формат: AVI
Видео: 720x400, 23.976 fps, XviD MPEG-4 1655 kbps, 0.24 bit/pixel
Аудио 1: Русский, AC3 Dolby Digital, 48 kHz, 2 ch, 192 kbps
Аудио 2: Английский, AC3 Dolby Digital, 48 kHz, 2 ch, 192 kbps

Список серий

ФиФ.S01E01.Американские Горки_Кендэс Теряет Голову.-SBRO.avi
ФиФ.S01E02.Жажда Скорости_Убойная Вечеринка или Гномы Возвращаются.-SBRO.avi
ФиФ.S01E03.Великолепная Тройка_Лето, Зима и снова Лето.-SBRO.avi
ФиФ.S01E04.Моя Личная Мумия_Звезды На Час.-SBRO.avi
ФиФ.S01E05.Задира_Свет, Кендэс, Мотор.-SBRO.avi
ФиФ.S01E06.Снежным Людям Вход Воспрещен_Битва Шалашей.-SBRO.avi
ФиФ.S01E07.Зависит От Времени.-SBRO.avi
ФиФ.S01E08.Болван Дю Солей_Мировая Игрушка.-SBRO.avi
ФиФ.S01E09.Немного Кошмариков Тебе Не Повредит.-SBRO.avi
ФиФ.S01E10.Рыцарь Без Страха и Упрека_Я, Бробот.-SBRO.avi
ФиФ.S01E11.День Рождения Мамы_Путешествие Внутрь Кэндес.-SBRO.avi
ФиФ.S01E12.Беглец, Убегай_Я Кричу, Ты Кричишь.-SBRO.avi
ФиФ.S01E13.Весь Мир в Грязи_Баллада о Плохобородом.-SBRO.avi
ФиФ.S01E14.Мы Воссоединяем Нашу Группу.-SBRO.avi
ФиФ.S01E15.Готовы Для Ведьм_Летающий Торговец Рыбой.-SBRO.avi
ФиФ.S01E16.Свершилось.-SBRO.avi
ФиФ.S01E17.Из Греции с Любовью_Мы Их Разоблачим.-SBRO.avi
ФиФ.S01E18.Старушечьи Бега_Лучший День Ничегонеделания.-SBRO.avi
ФиФ.S01E19.Приятель Из Палеолита_Путешествие На Дно Бьюфорда.-SBRO.avi
ФиФ.S01E20.Убери Эту Клюшку Подальше_Неужели Я Кажусь Толстым Из-За Утконоса.-SBRO.avi
ФиФ.S01E21.Похищение Компакт Диска_Драма в Кегельбане.-SBRO.avi
ФиФ.S01E22.Монстр Финеса и Фербенштейна_Песок, Масло, Кэндес.-SBRO.avi
ФиФ.S01E23.История Одного Портала (Часть 1,2).-SBRO.avi
ФиФ.S01E24.Навстречу Звездам.-SBRO.avi
ФиФ.S01E25.Сыграем_Комета Кормиллиана.-SBRO.avi
ФиФ.S01E26.Мультфильмания_Слава Фуфелании.-SBRO.avi

Скриншоты

               

MediaInfo

D:\РАЗДАЧИ\Phineas and Ferb.S01.XviD.WEB-DLRip.Rus.-SBRO\ФиФ.S01E01.Американские Горки_Кендэс Теряет Голову.-SBRO.avi
General
Complete name : D:\РАЗДАЧИ\Phineas and Ferb.S01.XviD.WEB-DLRip.Rus.-SBRO\ФиФ.S01E01.Американские Горки_Кендэс Теряет Голову.-SBRO.avi
Format : AVI
Format/Info : Audio Video Interleave
File size : 332 MiB
Duration : 22mn 36s
Overall bit rate : 2 053 Kbps
Writing application : VirtualDubMod 1.5.10.2 (build 2540/release)
Writing library : VirtualDubMod build 2540/release
Video #0
ID : 0
Format : MPEG-4 Visual
Format profile : Advanced Simple@L5
Format settings, BVOP : 1
Format settings, QPel : No
Format settings, GMC : No warppoints
Format settings, Matrix : Default (H.263)
Codec ID : XVID
Codec ID/Hint : XviD
Duration : 22mn 36s
Bit rate : 1 655 Kbps
Width : 720 pixels
Height : 400 pixels
Display aspect ratio : 16:9
Frame rate : 23.976 fps
Color space : YUV
Chroma subsampling : 4:2:0
Bit depth : 8 bits
Scan type : Progressive
Compression mode : Lossy
Bits/(Pixel*Frame) : 0.240
Stream size : 268 MiB (81%)
Writing library : XviD 1.2.0.dev47 (UTC 2006-11-01)
Audio #1
ID : 1
Format : AC-3
Format/Info : Audio Coding 3
Mode extension : CM (complete main)
Codec ID : 2000
Duration : 22mn 36s
Bit rate mode : Constant
Bit rate : 192 Kbps
Channel(s) : 2 channels
Channel positions : Front: L R
Sampling rate : 48.0 KHz
Bit depth : 16 bits
Compression mode : Lossy
Stream size : 31.1 MiB (9%)
Alignment : Split accross interleaves
Interleave, duration : 42 ms (1.00 video frame)
Interleave, preload duration : 500 ms
Audio #2
ID : 2
Format : AC-3
Format/Info : Audio Coding 3
Mode extension : CM (complete main)
Codec ID : 2000
Duration : 22mn 36s
Bit rate mode : Constant
Bit rate : 192 Kbps
Channel(s) : 2 channels
Channel positions : Front: L R
Sampling rate : 48.0 KHz
Bit depth : 16 bits
Compression mode : Lossy
Stream size : 31.1 MiB (9%)
Alignment : Split accross interleaves
Interleave, duration : 42 ms (1.00 video frame)
Interleave, preload duration : 500 ms

_________________
Вне форума [Профиль] [ЛС]
Показать сообщения:    
Ответить на тему

Текущее время: Сегодня 08:47

Часовой пояс: GMT + 3



Вы не можете начинать темы
Вы не можете отвечать на сообщения
Вы не можете редактировать свои сообщения
Вы не можете удалять свои сообщения
Вы не можете голосовать в опросах
Вы не можете прикреплять файлы к сообщениям
Вы не можете скачивать файлы