Сегодня идет свободное скачивание без начисления Download

Доктор Плюшева / Doc McStuffins (Нортон Вирген, Мария Эстрада, Сауль Эндрю Блинкофф)[2011., Мультфильм] WEB-DL [720p] (Сезон 01, Серии 01-26 из 26)

Ответить на тему
 
Автор
Сообщение

sashau ®

Пол:

Стаж: 5 лет 9 месяцев

Сообщений: 3575

Торрент-статистика

Пост 11-Июл-2014 16:35

[Цитировать]

Доктор Плюшева / Doc McStuffins - Год выпуска: 2011
Производство: США, Ирландия / Walt Disney
Жанр: Мультфильм
Описание:
Хорошим врачом может быть даже ребенок. Главное — желание помочь близким. В этом уверена 6-летняя героиня мультсериала Дотти, зовущая себя Доктор Плюшева, которая просто обожает свои игрушки. Стоит ей только поднести к ним стетоскоп, и они оживают!
Теперь плюшевых зверей можно спросить о самочувствии, измерить им температуру и выписать рецепты, как настоящим пациентам. Вместе с помощниками — драконом Стаффи, овечкой Лэмми и бегемотиком Хэлли — Дотти каждый день учится соблюдать гигиену, правильно питаться и укреплять здоровье.
Режиссер: Нортон Вирген, Мария Эстрада, Сауль Эндрю Блинкофф
Персонажи: Джейден Беттс, Киара Мухаммад, Лара Джилл Миллер, Робби Рист, Лоретта Дивайн, Кэйтлин Кармайкл, Джесс Харнелл, Кайли Андерсон, Гари Энтони Уильямс, Кимберли Брукс
Продолжительность: Серия по ~ 00:24:00
Качество видео: WEB-DL 720p
Перевод: Дублированный

Видеокодек: MPEG-4 AVC/H.264
Битрейт видео: ~2455 Кбит/сек
Размер кадра: 1280x720
Аудиокодек: AC3 2.0
Битрейт аудио: 192 Кбит/сек

Список серий:

01. Джек из шкатулки + Уставший гонщик
02. Время рыцарей + Тяжёлый случай Уколошипоза
03. Капризное чаепитие + Старт ракеты!
04. Пожарная машина к службе готова + Так держать!
05. Ненасытные крокодилы + Фальшивая нота
06. Приключения в игротеке + Звёздная, звёздная ночь
07. Бен-Анновый сплит + Просто клешне-лепно
08. Серьёзный приступ икоты + В замешательстве
09. Ронда-спасатель к взлёту готова + Водные забавы
10. Новенькая + Перевязка
11. Дай отдохнуть винтам, Ронда! + Езда без конца
12. Во всём виноват дождь + Сплющенный Бумер
13. Рыцарь и темнота + Хелли теряет слух
14. Балерина + Мартышка и пузырьки
15. На природе + Кит-малютка
16. Рана, о которой услышал весь мир + Время раций
17. Колючки-прилипучки + Левое вместо правого
18. День рождения Хелли + И у акул болят зубы
19. Забавные опоссумы + Грустный крольчонок
20. Пора искупаться + Шумный Луи
21. Поймать за руку + Пищать или не пищать
22. Лечение доктора + Жаркая погоня
23. Как страшно + Пора светиться
24. Замерзший Чилли + Мир сквозь очки
25. Валентинка-обнимашка + Пыльный мишка
26. Бронто Бо-бо + Дыхание бронтозавра

MediaInfo:

Общее
Уникальный идентификатор : 210834233854837171066107727256637526790 (0x9E9D32491FF87F17AA3452E0F229D306)
Формат : Matroska
Версия формата : Version 2
Размер файла : 464 Мбайт
Продолжительность : 23 м.
Общий поток : 2701 Кбит/сек
Дата кодирования : UTC 2014-07-08 12:00:05
Программа кодирования : mkvmerge v5.8.0 ('No Sleep / Pillow') built on Sep 2 2012 15:37:04
Библиотека кодирования : libebml v1.2.3 + libmatroska v1.3.0
Видео
Идентификатор : 1
Формат : AVC
Формат/Информация : Advanced Video Codec
Профиль формата : [url=mailto:High@L3.1]High@L3.1[/url]
Параметр CABAC формата : Да
Параметр ReFrames формата : 4 кадра
Идентификатор кодека : V_MPEG4/ISO/AVC
Продолжительность : 23 м.
Битрейт : 2455 Кбит/сек
Ширина : 1280 пикселей
Высота : 720 пикселей
Соотношение сторон : 16:9
Режим частоты кадров : Постоянный
Частота кадров : 23,976 кадра/сек
Цветовое пространство : YUV
Субдискретизация насыщенности : 4:2:0
Битовая глубина : 8 бит
Тип развёртки : Прогрессивная
Бит/(Пиксели*Кадры) : 0.111
Размер потока : 421 Мбайт (91%)
Язык : English
Default : Да
Forced : Нет
Основные цвета : BT.709
Характеристики трансфера : BT.709
Коэффициенты матрицы : BT.709
Аудио
Идентификатор : 2
Формат : AC-3
Формат/Информация : Audio Coding 3
Расширение режима : CM (complete main)
Параметр Endianness формата : Big
Идентификатор кодека : A_AC3
Продолжительность : 23 м.
Вид битрейта : Постоянный
Битрейт : 192 Кбит/сек
Каналы : 2 канала
Расположение каналов : Front: L R
Частота : 48,0 КГц
Битовая глубина : 16 бит
Метод сжатия : С потерями
Размер потока : 33,0 Мбайт (7%)
Заголовок : rus
Язык : Russian
Default : Да
Forced : Нет
Скриншоты:        
Вне форума [Профиль] [ЛС]
Похожие темы
Форум Тема Автор Торрент Отв. Посл. сообщение
./templates/default/images/folder_dl.gif Медицина и Здоровье Е. Г. Капранова | Зверобой – лучший доктор от 100 болезней [2010] [PDF] UndegraundMen
1 | 0

0 | 562

4

2013-08-27 11:04
UndegraundMen Последнее
./templates/default/images/folder_dl.gif T Новинки (HD|DVD|BD|WEB|TV|SAT|PDTV|-Rip) Выкуп миллиард / Take Down / Billionaire Ransom (Джим Гиллеспи) [2016, Триллер, HDRip] [VO] Хихикающий доктор Russian Mafia
1 | 0

0 | 648

11

2016-08-24 18:46
Russian Mafia Последнее
Показать сообщения:    
Ответить на тему

Текущее время: Сегодня 06:49

Часовой пояс: GMT + 3



Вы не можете начинать темы
Вы не можете отвечать на сообщения
Вы не можете редактировать свои сообщения
Вы не можете удалять свои сообщения
Вы не можете голосовать в опросах
Вы не можете прикреплять файлы к сообщениям
Вы не можете скачивать файлы