Today is a free download without charge Download

VA - Niccolo PAGANINI - Complete Chamber Music (2007) [APE|Lossless]<Classical, Instrumental>

Reply to topic
 
Author
Message

sashau ®

Gender:

Longevity: 8 years 10 months

Posts: 3497

Торрент-статистика

Post 04-Jul-2014 13:46

[Quote]

VA - Niccolò PAGANINI - Complete Chamber Music )- Год: 2007 ( Recorded 1992-2007 )
Жанр: Classical, Instrumental
Продолжительность: 00:00:00
Лейбл: Dynamic ( Кат No CDS553 )
Кодек: APE
Битрейт: Lossless

CD 1&#58; Complete Quartets for strings and guitar, Vol. 1

Трек лист:
Quartet No. 1 in A minor, Op.4/1, MS28 [21:41]
Quartet No. 9 in D major, MS36 [21:42]
Quartet No. 10 in A major, MS37 [23:53]
Продолжительность: 01:07:16
Исполнители:
Quartetto Paganini:
- Bruno Pignata (violin);
- Lorenzo Lugli (viola);
- Paola Mosca (cello);
- Giuseppe Briasco (guitar)

Отчёт ЕАС&#58;

Код:
CUERipper v2.1.2 Copyright (C) 2008-10 Gregory S. Chudov
EAC extraction logfile from 19. April 2012, 0:43
Nicolo Paganini / Complete Chamber Music
Used drive  : PIONEER DVD-RW DVR-K16RS   Adapter: 1  ID: 0
Read mode               : Secure
Utilize accurate stream : Yes
Defeat audio cache      : Yes
Make use of C2 pointers : No
Read offset correction                      : 48
Overread into Lead-In and Lead-Out          : No
Fill up missing offset samples with silence : Yes
Delete leading and trailing silent blocks   : No
Null samples used in CRC calculations       : Yes
Used interface                              : Native Win32 interface for Win NT & 2000
Used output format : Internal WAV Routines
Sample format      : 44.100 Hz; 16 Bit; Stereo
TOC of the extracted CD
     Track |   Start  |  Length  | Start sector | End sector
    ---------------------------------------------------------
        1  |  0:00.32 |  9:34.38 |        32    |    43119
        2  |  9:34.70 |  4:54.22 |     43120    |    65191
        3  | 14:29.17 |  7:13.15 |     65192    |    97681
        4  | 21:42.32 |  7:36.50 |     97682    |   131931
        5  | 29:19.07 |  3:52.25 |    131932    |   149356
        6  | 33:11.32 |  5:59.25 |    149357    |   176306
        7  | 39:10.57 |  4:15.50 |    176307    |   195481
        8  | 43:26.32 |  7:12.50 |    195482    |   227931
        9  | 50:39.07 |  4:42.50 |    227932    |   249131
       10  | 55:21.57 |  5:32.00 |    249132    |   274031
       11  | 60:53.57 |  6:27.50 |    274032    |   303106
Range status and errors
Selected range
     Filename C:\Documents and Settings\Admin\Мои документы\Моя музыка\Nicolo Paganini\2002-2007 - Complete Chamber Music\Nicolo Paganini - Complete Chamber Music (disc 01 of 10 - Complete Quartets for strings and guitar. Vol.1).wav
     Peak level 93.3 %
     Range quality 100.0 %
     Test CRC 0125405B
     Copy CRC 0125405B
     Copy OK
No errors occurred
AccurateRip summary
Track  1  accurately ripped (confidence 3)  [11A90901]
Track  2  accurately ripped (confidence 3)  [7DB796D8]
Track  3  accurately ripped (confidence 3)  [B81CB398]
Track  4  accurately ripped (confidence 3)  [DFAE9808]
Track  5  accurately ripped (confidence 3)  [BAA11CC3]
Track  6  accurately ripped (confidence 3)  [DAAE808A]
Track  7  accurately ripped (confidence 3)  [030AFA25]
Track  8  accurately ripped (confidence 3)  [A2D714F0]
Track  9  accurately ripped (confidence 3)  [E08C5908]
Track 10  accurately ripped (confidence 3)  [8B837B39]
Track 11  accurately ripped (confidence 3)  [20F32AB6]
All tracks accurately ripped
End of status report

Отчёт auCDtect Task manager&#58;

Код:
-----------------------
DON'T MODIFY THIS FILE
-----------------------
PERFORMER: auCDtect Task Manager, ver. 1.5.1RC6 build 1.5.1.7
Copyright (c) 2008-2010 y-soft. All rights reserved
http://y-soft.org
ANALYZER: auCDtect: CD records authenticity detector, version 0.8.2
Copyright (c) 2004 Oleg Berngardt. All rights reserved.
Copyright (c) 2004 Alexander Djourik. All rights reserved.
FILE: Nicolo Paganini - Complete Chamber Music (disc 01 of 10 - Complete Quartets for strings and guitar. Vol.1).ape
  Size: 304960397 Hash: 23F06CB7CA97A1853CFDC4B076CC7E53 Accuracy: -m0
  Conclusion: CDDA 100%
  Signature: DEE3B874B7A6270E0D050CFDA4BCE8187371A697

CD 2&#58; Complete Quartets for strings and guitar, Vol. 2

Трек лист:
Quartet No. 11 in B major, MS38 [20:28]
Quartet No. 12 in A minor, MS39 [23:33]
Quartet No. 13 in F major, MS40 (1819) [19:46]
Продолжительность: 01:03:47
Исполнители:
Quartetto Paganini:
- Bruno Pignata (violin);
- Lorenzo Lugli (viola);
- Paola Mosca (cello);
- Giuseppe Briasco (guitar)

Отчёт ЕАС&#58;

Код:
CUERipper v2.1.2 Copyright (C) 2008-10 Gregory S. Chudov
EAC extraction logfile from 19. April 2012, 1:01
Nicolo Paganini / Complete Chamber Music
Used drive  : PIONEER DVD-RW DVR-K16RS   Adapter: 1  ID: 0
Read mode               : Secure
Utilize accurate stream : Yes
Defeat audio cache      : Yes
Make use of C2 pointers : No
Read offset correction                      : 48
Overread into Lead-In and Lead-Out          : No
Fill up missing offset samples with silence : Yes
Delete leading and trailing silent blocks   : No
Null samples used in CRC calculations       : Yes
Used interface                              : Native Win32 interface for Win NT & 2000
Used output format : Internal WAV Routines
Sample format      : 44.100 Hz; 16 Bit; Stereo
TOC of the extracted CD
     Track |   Start  |  Length  | Start sector | End sector
    ---------------------------------------------------------
        1  |  0:00.32 |  5:51.25 |        32    |    26381
        2  |  5:51.57 |  3:39.50 |     26382    |    42856
        3  |  9:31.32 |  3:49.25 |     42857    |    60056
        4  | 13:20.57 |  7:09.00 |     60057    |    92231
        5  | 20:29.57 |  6:07.00 |     92232    |   119756
        6  | 26:36.57 |  7:17.50 |    119757    |   152581
        7  | 33:54.32 | 10:09.00 |    152582    |   198256
        8  | 44:03.32 |  6:50.00 |    198257    |   229006
        9  | 50:53.32 |  3:59.00 |    229007    |   246931
       10  | 54:52.32 |  4:36.00 |    246932    |   267631
       11  | 59:28.32 |  4:22.00 |    267632    |   287281
Range status and errors
Selected range
     Filename C:\Documents and Settings\Admin\Мои документы\Моя музыка\Nicolo Paganini\2002-2007 - Complete Chamber Music\Nicolo Paganini - Complete Chamber Music (disc 02 of 10 - Complete Quartets for strings and guitar Vol.2).wav
     Peak level 100.0 %
     Range quality 100.0 %
     Test CRC 50DD4C33
     Copy CRC 50DD4C33
     Copy OK
No errors occurred
AccurateRip summary
Track  1  accurately ripped (confidence 3)  [31C4985E]
Track  2  accurately ripped (confidence 3)  [A6A04CE4]
Track  3  accurately ripped (confidence 3)  [69B1DB66]
Track  4  accurately ripped (confidence 3)  [D787E218]
Track  5  accurately ripped (confidence 3)  [9C182103]
Track  6  accurately ripped (confidence 3)  [7A428878]
Track  7  accurately ripped (confidence 3)  [A03371BA]
Track  8  accurately ripped (confidence 3)  [D252A498]
Track  9  accurately ripped (confidence 3)  [4F1A69E9]
Track 10  accurately ripped (confidence 3)  [D25538D8]
Track 11  accurately ripped (confidence 3)  [B4FEB4F8]
All tracks accurately ripped
End of status report

Отчёт auCDtect Task manager&#58;

Код:
-----------------------
DON'T MODIFY THIS FILE
-----------------------
PERFORMER: auCDtect Task Manager, ver. 1.5.1RC6 build 1.5.1.7
Copyright (c) 2008-2010 y-soft. All rights reserved
http://y-soft.org
ANALYZER: auCDtect: CD records authenticity detector, version 0.8.2
Copyright (c) 2004 Oleg Berngardt. All rights reserved.
Copyright (c) 2004 Alexander Djourik. All rights reserved.
FILE: Nicolo Paganini - Complete Chamber Music (disc 02 of 10 - Complete Quartets for strings and guitar Vol.2).ape
  Size: 285383848 Hash: 282EA5A216532EBF68C3C59BF7A0C165 Accuracy: -m0
  Conclusion: CDDA 100%
  Signature: 62456BACFF7AE10B5AEC96EDC65C70B42E0DDA6D

CD 3&#58; Complete Quartets for strings and guitar, Vol. 3

Трек лист:
Quartet No. 3 in A major, Op. 4/3, MS30 [21:21]
Quartet No. 7 in E major, MS34 [26:04]
Quartet No. 14 in A major, MS41 [21:27]
Продолжительность: 01:08:53
Исполнители:
Quartetto Paganini:
- Bruno Pignata (violin);
- Lorenzo Lugli (viola);
- Paola Mosca (cello);
- Giuseppe Briasco (guitar)

Отчёт ЕАС&#58;

Код:
CUERipper v2.1.2 Copyright (C) 2008-10 Gregory S. Chudov
EAC extraction logfile from 19. April 2012, 5:42
Nicolo Paganini / Complete Chamber Music
Used drive  : PIONEER DVD-RW DVR-K16RS   Adapter: 1  ID: 0
Read mode               : Secure
Utilize accurate stream : Yes
Defeat audio cache      : Yes
Make use of C2 pointers : No
Read offset correction                      : 48
Overread into Lead-In and Lead-Out          : No
Fill up missing offset samples with silence : Yes
Delete leading and trailing silent blocks   : No
Null samples used in CRC calculations       : Yes
Used interface                              : Native Win32 interface for Win NT & 2000
Used output format : Internal WAV Routines
Sample format      : 44.100 Hz; 16 Bit; Stereo
TOC of the extracted CD
     Track |   Start  |  Length  | Start sector | End sector
    ---------------------------------------------------------
        1  |  0:00.33 |  6:02.00 |        33    |    27182
        2  |  6:02.33 |  2:40.00 |     27183    |    39182
        3  |  8:42.33 |  5:30.00 |     39183    |    63932
        4  | 14:12.33 |  7:09.00 |     63933    |    96107
        5  | 21:21.33 |  7:59.25 |     96108    |   132057
        6  | 29:20.58 |  4:44.00 |    132058    |   153357
        7  | 34:04.58 |  6:25.50 |    153358    |   182282
        8  | 40:30.33 |  6:56.00 |    182283    |   213482
        9  | 47:26.33 |  8:05.25 |    213483    |   249882
       10  | 55:31.58 |  3:09.00 |    249883    |   264057
       11  | 58:40.58 |  7:01.00 |    264058    |   295632
       12  | 65:41.58 |  3:12.50 |    295633    |   310082
Range status and errors
Selected range
     Filename C:\Documents and Settings\Admin\Мои документы\Моя музыка\Nicolo Paganini\2002-2007 - Complete Chamber Music\Nicolo Paganini - Complete Chamber Music (disc 03 of 10 - Complete Quartets for strings and quitar Vol3).wav
     Peak level 98.7 %
     Range quality 100.0 %
     Test CRC E6ED8B72
     Copy CRC E6ED8B72
     Copy OK
No errors occurred
AccurateRip summary
Track  1  accurately ripped (confidence 3)  [02FE0F71]
Track  2  accurately ripped (confidence 3)  [6804BB73]
Track  3  accurately ripped (confidence 3)  [3E3232DA]
Track  4  accurately ripped (confidence 3)  [0FF09638]
Track  5  accurately ripped (confidence 3)  [F05F6510]
Track  6  accurately ripped (confidence 3)  [AD3DE6F5]
Track  7  accurately ripped (confidence 3)  [25DD2EB9]
Track  8  accurately ripped (confidence 3)  [0EE09C89]
Track  9  accurately ripped (confidence 3)  [7BB42B35]
Track 10  accurately ripped (confidence 3)  [3D3FAEAE]
Track 11  accurately ripped (confidence 3)  [74873245]
Track 12  accurately ripped (confidence 3)  [D6E659BF]
All tracks accurately ripped
End of status report

Отчёт auCDtect Task manager&#58;

Код:
-----------------------
DON'T MODIFY THIS FILE
-----------------------
PERFORMER: auCDtect Task Manager, ver. 1.5.1RC6 build 1.5.1.7
Copyright (c) 2008-2010 y-soft. All rights reserved
http://y-soft.org
ANALYZER: auCDtect: CD records authenticity detector, version 0.8.2
Copyright (c) 2004 Oleg Berngardt. All rights reserved.
Copyright (c) 2004 Alexander Djourik. All rights reserved.
FILE: Nicolo Paganini - Complete Chamber Music (disc 03 of 10 - Complete Quartets for strings and quitar Vol3).ape
  Size: 296912646 Hash: D712974E90FC280D3B72952387FE6014 Accuracy: -m0
  Conclusion: CDDA 100%
  Signature: D1AC95DE38B589110D306973C1F984736875523A

CD 4&#58; Complete Quartets for strings and guitar, Vol. 4

Трек лист:
Quartet No. 2 in C major, Op. 4/2, MS29 [18:56]
Quartet No. 8 in A major, MS35 [23:03]
Quartet No. 15 in A minor, MS42 [22:04]
Продолжительность: 01:04:03
Исполнители:
Quartetto Paganini:
- Bruno Pignata (violin);
- Ernest Braucher (viola);
- Riccardo Agosti (cello);
- Giuseppe Briasco (guitar)

Отчёт ЕАС&#58;

Код:
CUERipper v2.1.2 Copyright (C) 2008-10 Gregory S. Chudov
EAC extraction logfile from 19. April 2012, 5:55
Nicolo Paganini / Complete Chamber Music
Used drive  : PIONEER DVD-RW DVR-K16RS   Adapter: 1  ID: 0
Read mode               : Secure
Utilize accurate stream : Yes
Defeat audio cache      : Yes
Make use of C2 pointers : No
Read offset correction                      : 48
Overread into Lead-In and Lead-Out          : No
Fill up missing offset samples with silence : Yes
Delete leading and trailing silent blocks   : No
Null samples used in CRC calculations       : Yes
Used interface                              : Native Win32 interface for Win NT & 2000
Used output format : Internal WAV Routines
Sample format      : 44.100 Hz; 16 Bit; Stereo
TOC of the extracted CD
     Track |   Start  |  Length  | Start sector | End sector
    ---------------------------------------------------------
        1  |  0:00.32 |  8:14.40 |        32    |    37121
        2  |  8:14.72 |  3:20.70 |     37122    |    52191
        3  | 11:35.67 |  4:07.18 |     52192    |    70734
        4  | 15:43.10 |  3:15.72 |     70735    |    85431
        5  | 18:59.07 |  9:19.00 |     85432    |   127356
        6  | 28:18.07 |  3:21.43 |    127357    |   142474
        7  | 31:39.50 |  4:21.10 |    142475    |   162059
        8  | 36:00.60 |  6:02.22 |    162060    |   189231
        9  | 42:03.07 | 10:05.55 |    189232    |   234661
       10  | 52:08.62 |  3:17.13 |    234662    |   249449
       11  | 55:26.00 |  2:18.72 |    249450    |   259871
       12  | 57:44.72 |  3:21.20 |    259872    |   274966
       13  | 61:06.17 |  3:03.15 |    274967    |   288706
Range status and errors
Selected range
     Filename C:\Documents and Settings\Admin\Мои документы\Моя музыка\Nicolo Paganini\2002-2007 - Complete Chamber Music\NicoloPaganini - Complete Chamber Music (disc 04 of 10 - Complete Quartets for strings and quitar Vol 4).wav
     Peak level 100.0 %
     Range quality 100.0 %
     Test CRC 50F76E59
     Copy CRC 50F76E59
     Copy OK
No errors occurred
AccurateRip summary
Track  1  accurately ripped (confidence 3)  [A7FF5ED6]
Track  2  accurately ripped (confidence 3)  [E1B1B5F9]
Track  3  accurately ripped (confidence 3)  [AA04F177]
Track  4  accurately ripped (confidence 3)  [2B827EA2]
Track  5  accurately ripped (confidence 3)  [297C2923]
Track  6  accurately ripped (confidence 3)  [D52A16FA]
Track  7  accurately ripped (confidence 3)  [675EAB3D]
Track  8  accurately ripped (confidence 3)  [F7D1F924]
Track  9  accurately ripped (confidence 3)  [7FD394DE]
Track 10  accurately ripped (confidence 3)  [577519F2]
Track 11  accurately ripped (confidence 3)  [56693077]
Track 12  accurately ripped (confidence 3)  [FB9BF81E]
Track 13  accurately ripped (confidence 3)  [537B4A2F]
All tracks accurately ripped
End of status report

Отчёт auCDtect Task manager&#58;

Код:
-----------------------
DON'T MODIFY THIS FILE
-----------------------
PERFORMER: auCDtect Task Manager, ver. 1.5.1RC6 build 1.5.1.7
Copyright (c) 2008-2010 y-soft. All rights reserved
http://y-soft.org
ANALYZER: auCDtect: CD records authenticity detector, version 0.8.2
Copyright (c) 2004 Oleg Berngardt. All rights reserved.
Copyright (c) 2004 Alexander Djourik. All rights reserved.
FILE: Nicolo Paganini - Complete Chamber Music (disc 04 of 10 - Complete Quartets for strings and quitar Vol 4).ape
  Size: 290527047 Hash: 648E74C7F5C2AB7B78029F4D7A5B8C3E Accuracy: -m0
  Conclusion: CDDA 100%
  Signature: 9C235E4DC882FA1CDE7567AF7DFD824F61EB205C

CD 5&#58; Complete Quartets for strings and guitar, Vol. 5

Трек лист:
Quartet No. 4 in D major, Op.5/1, MS31 [24:21]
Quartet No. 5 in D major, Op. 5/2, MS32 [24:20]
Quartet No. 6 in D minor, Op. 5/3, MS33 [25:36]
Продолжительность: 01:14:17
Исполнители:
Quartetto Paganini:
- Bruno Pignata (violin);
- Ernest Braucher (viola);
- Riccardo Agosti (cello);
- Giuseppe Briasco (guitar)

Отчёт ЕАС&#58;

Код:
CUERipper v2.1.2 Copyright (C) 2008-10 Gregory S. Chudov
EAC extraction logfile from 23. April 2012, 1:44
Nicolo Paganini / Complete Chamber Music
Used drive  : PIONEER DVD-RW DVR-K16RS   Adapter: 1  ID: 0
Read mode               : Secure
Utilize accurate stream : Yes
Defeat audio cache      : Yes
Make use of C2 pointers : No
Read offset correction                      : 48
Overread into Lead-In and Lead-Out          : No
Fill up missing offset samples with silence : Yes
Delete leading and trailing silent blocks   : No
Null samples used in CRC calculations       : Yes
Used interface                              : Native Win32 interface for Win NT & 2000
Used output format : Internal WAV Routines
Sample format      : 44.100 Hz; 16 Bit; Stereo
TOC of the extracted CD
     Track |   Start  |  Length  | Start sector | End sector
    ---------------------------------------------------------
        1  |  0:00.32 | 10:37.65 |        32    |    47871
        2  | 10:38.22 |  5:17.23 |     47872    |    71669
        3  | 15:55.45 |  8:37.37 |     71670    |   110481
        4  | 24:33.07 |  8:24.23 |    110482    |   148304
        5  | 32:57.30 |  7:19.02 |    148305    |   181231
        6  | 40:16.32 |  4:58.18 |    181232    |   203599
        7  | 45:14.50 |  3:39.32 |    203600    |   220056
        8  | 48:54.07 | 10:04.45 |    220057    |   265401
        9  | 58:58.52 |  3:41.03 |    265402    |   281979
       10  | 62:39.55 |  8:23.17 |    281980    |   319721
       11  | 71:02.72 |  3:28.35 |    319722    |   335356
Range status and errors
Selected range
     Filename C:\Documents and Settings\Admin\Мои документы\Моя музыка\Nicolo Paganini\1991-2007 - Complete Chamber Music\Nicolo Paganini - Complete Chamber Music (disc 05 of 10 - Complete Quartets for strings and guitar Vol.5).wav
     Peak level 97.5 %
     Range quality 100.0 %
     Test CRC 825FFCCF
     Copy CRC 825FFCCF
     Copy OK
No errors occurred
AccurateRip summary
Track  1  accurately ripped (confidence 2)  [E28C06E9]
Track  2  accurately ripped (confidence 2)  [C3EDB021]
Track  3  accurately ripped (confidence 2)  [0166A56A]
Track  4  accurately ripped (confidence 2)  [9FFDA5CB]
Track  5  accurately ripped (confidence 2)  [48B42947]
Track  6  accurately ripped (confidence 2)  [ED32028A]
Track  7  accurately ripped (confidence 2)  [1BE8963E]
Track  8  accurately ripped (confidence 2)  [CCF47F59]
Track  9  accurately ripped (confidence 2)  [596A01D1]
Track 10  accurately ripped (confidence 2)  [CF37EC52]
Track 11  accurately ripped (confidence 2)  [EB48F07F]
All tracks accurately ripped
End of status report

Отчёт auCDtect Task manager&#58;

Код:
-----------------------
DON'T MODIFY THIS FILE
-----------------------
PERFORMER: auCDtect Task Manager, ver. 1.5.1RC6 build 1.5.1.7
Copyright (c) 2008-2010 y-soft. All rights reserved
http://y-soft.org
ANALYZER: auCDtect: CD records authenticity detector, version 0.8.2
Copyright (c) 2004 Oleg Berngardt. All rights reserved.
Copyright (c) 2004 Alexander Djourik. All rights reserved.
FILE: Nicolo Paganini - Complete Chamber Music (disc 05 of 10 - Complete Quartets for strings and guitar Vol.5).ape
  Size: 308874306 Hash: 6E0BD58A526594875FEF3EAAE15B9BB1 Accuracy: -m0
  Conclusion: CDDA 100%
  Signature: 0F4249A58DF52BF3FE3BD9BE887433F1489C8393

CD 6&#58; Complete Trios for strings and guitar

Трек лист:
Serenata in C major for viola, cello and guitar, MS17 [15:10]
Terzetto Concertante in D major for viola, cello and guitar, MS114 [22:55]
Terzetto in D major for viola, cello and guitar, MS69 [20:12]
Terzetto in A minor for 2 violins and guitar, MS116 [03:03]
Serenata in F major for 2 violins and guitar, MS115 [04:09]
Продолжительность: 01:05:29
Исполнители:
- Dora Bratchkova (violin);
- Götz Hartmann (violin);
- Antonello Farulli (viola);
- Andrea Noferini (cello);
- Adriano Sebastiani (guitar)

Отчёт ЕАС&#58;

Код:
CUERipper v2.1.2 Copyright (C) 2008-10 Gregory S. Chudov
EAC extraction logfile from 1. May 2012, 12:27
Nicolo Paganini / Complete Chamber Music
Used drive  : PIONEER DVD-RW DVR-K16RS   Adapter: 1  ID: 0
Read mode               : Secure
Utilize accurate stream : Yes
Defeat audio cache      : Yes
Make use of C2 pointers : No
Read offset correction                      : 48
Overread into Lead-In and Lead-Out          : No
Fill up missing offset samples with silence : Yes
Delete leading and trailing silent blocks   : No
Null samples used in CRC calculations       : Yes
Used interface                              : Native Win32 interface for Win NT & 2000
Used output format : Internal WAV Routines
Sample format      : 44.100 Hz; 16 Bit; Stereo
TOC of the extracted CD
     Track |   Start  |  Length  | Start sector | End sector
    ---------------------------------------------------------
        1  |  0:00.00 |  5:05.67 |         0    |    22941
        2  |  5:05.67 |  1:39.08 |     22942    |    30374
        3  |  6:45.00 |  2:09.70 |     30375    |    40119
        4  |  8:54.70 |  1:57.05 |     40120    |    48899
        5  | 10:52.00 |  4:20.25 |     48900    |    68424
        6  | 15:12.25 |  8:12.00 |     68425    |   105324
        7  | 23:24.25 |  4:11.07 |    105325    |   124156
        8  | 27:35.32 |  3:17.73 |    124157    |   139004
        9  | 30:53.30 |  7:15.07 |    139005    |   171636
       10  | 38:08.37 |  6:52.65 |    171637    |   202601
       11  | 45:01.27 |  3:57.55 |    202602    |   220431
       12  | 48:59.07 |  3:28.68 |    220432    |   236099
       13  | 52:28.00 |  5:55.37 |    236100    |   262761
       14  | 58:23.37 |  0:29.10 |    262762    |   264946
       15  | 58:52.47 |  1:25.73 |    264947    |   271394
       16  | 60:18.45 |  1:19.20 |    271395    |   277339
       17  | 61:37.65 |  0:38.47 |    277340    |   280236
       18  | 62:16.37 |  1:39.18 |    280237    |   287679
       19  | 63:55.55 |  1:52.20 |    287680    |   296099
Range status and errors
Selected range
     Filename C:\Documents and Settings\Admin\Мои документы\Моя музыка\Nicolo Paganini\1992-2007 - Complete Chamber Music\Nicolo Paganini - Complete Chamber Music (disc 06 of 10 - Complete Trios for strings and guitar. Serenata in F Major M.S. 115).wav
     Peak level 100.0 %
     Range quality 100.0 %
     Test CRC 9354AC58
     Copy CRC 9354AC58
     Copy OK
No errors occurred
AccurateRip summary
Track  1  accurately ripped (confidence 3)  [EEE77078]
Track  2  accurately ripped (confidence 3)  [DD9FEB69]
Track  3  accurately ripped (confidence 3)  [525587C3]
Track  4  accurately ripped (confidence 3)  [E92BF5DD]
Track  5  accurately ripped (confidence 3)  [77F1D330]
Track  6  accurately ripped (confidence 3)  [67CF62CD]
Track  7  accurately ripped (confidence 3)  [C2697266]
Track  8  accurately ripped (confidence 3)  [E7AE9BF2]
Track  9  accurately ripped (confidence 3)  [CBCA2965]
Track 10  accurately ripped (confidence 3)  [9CE8680A]
Track 11  accurately ripped (confidence 3)  [29338B88]
Track 12  accurately ripped (confidence 3)  [12BDAA93]
Track 13  accurately ripped (confidence 3)  [D8DECE3A]
Track 14  accurately ripped (confidence 3)  [57C63399]
Track 15  accurately ripped (confidence 3)  [799F3CAD]
Track 16  accurately ripped (confidence 3)  [E0B21664]
Track 17  accurately ripped (confidence 3)  [AF3B2728]
Track 18  accurately ripped (confidence 3)  [19495F1E]
Track 19  accurately ripped (confidence 3)  [37DF11C0]
All tracks accurately ripped
End of status report

Отчёт auCDtect Task manager&#58;

Код:
-----------------------
DON'T MODIFY THIS FILE
-----------------------
PERFORMER: auCDtect Task Manager, ver. 1.5.1RC6 build 1.5.1.7
Copyright (c) 2008-2010 y-soft. All rights reserved
http://y-soft.org
ANALYZER: auCDtect: CD records authenticity detector, version 0.8.2
Copyright (c) 2004 Oleg Berngardt. All rights reserved.
Copyright (c) 2004 Alexander Djourik. All rights reserved.
FILE: Nicolo Paganini - Complete Chamber Music (disc 06 of 10 - Complete Trios for strings and guitar. Serenata in F Major M.S. 115).ape
  Size: 285888767 Hash: 69C5403079441368FCE06767E1932759 Accuracy: -m0
  Conclusion: CDDA 100%
  Signature: 0169CC4DB7D6F8E01053EE4D88014E58AC792045

CD 7&#58; Complete String Quartets, MS20

Трек лист:
String Quartet No. 1 (c.1815) [19:02]
String Quartet No. 2 (c.1815) [23:00]
String Quartet No. 3 (c.1815) [22:53]
Исполнители:
Quartetto d’archi Paganini:
- Bruno Pignata (violin);
- Gian Luca Allocco (violin);
- Ernest Braucher (viola);
- Dario De Stefano (cello)

Отчёт ЕАС&#58;

Код:
CUERipper v2.1.2 Copyright (C) 2008-10 Gregory S. Chudov
EAC extraction logfile from 1. May 2012, 12:43
Nicolo Paganini / Complete Chamber Music
Used drive  : PIONEER DVD-RW DVR-K16RS   Adapter: 1  ID: 0
Read mode               : Secure
Utilize accurate stream : Yes
Defeat audio cache      : Yes
Make use of C2 pointers : No
Read offset correction                      : 48
Overread into Lead-In and Lead-Out          : No
Fill up missing offset samples with silence : Yes
Delete leading and trailing silent blocks   : No
Null samples used in CRC calculations       : Yes
Used interface                              : Native Win32 interface for Win NT & 2000
Used output format : Internal WAV Routines
Sample format      : 44.100 Hz; 16 Bit; Stereo
TOC of the extracted CD
     Track |   Start  |  Length  | Start sector | End sector
    ---------------------------------------------------------
        1  |  0:00.00 |  8:00.60 |         0    |    36059
        2  |  8:00.60 |  3:35.35 |     36060    |    52219
        3  | 11:36.20 |  5:10.27 |     52220    |    75496
        4  | 16:46.47 |  2:17.23 |     75497    |    85794
        5  | 19:03.70 |  8:34.07 |     85795    |   124351
        6  | 27:38.02 |  4:28.28 |    124352    |   144479
        7  | 32:06.30 |  5:37.47 |    144480    |   169801
        8  | 37:44.02 |  4:21.70 |    169802    |   189446
        9  | 42:05.72 |  8:57.20 |    189447    |   229741
       10  | 51:03.17 |  3:43.60 |    229742    |   246526
       11  | 54:47.02 |  7:41.40 |    246527    |   281141
       12  | 62:28.42 |  2:32.25 |    281142    |   292566
Range status and errors
Selected range
     Filename C:\Documents and Settings\Admin\Мои документы\Моя музыка\Nicolo Paganini\1992-2007 - Complete Chamber Music\Nicolo Paganini - Complete Chamber Music (disc 07 of 10 - Complete String Quartets M.S. 20).wav
     Peak level 76.3 %
     Range quality 100.0 %
     Test CRC BF7AC247
     Copy CRC BF7AC247
     Copy OK
No errors occurred
AccurateRip summary
Track  1  accurately ripped (confidence 3)  [A47B5BA9]
Track  2  accurately ripped (confidence 3)  [1BDA0416]
Track  3  accurately ripped (confidence 3)  [744FA0CC]
Track  4  accurately ripped (confidence 3)  [BD46F66B]
Track  5  accurately ripped (confidence 3)  [DA80925F]
Track  6  accurately ripped (confidence 3)  [E9591F16]
Track  7  accurately ripped (confidence 3)  [AFA0E048]
Track  8  accurately ripped (confidence 3)  [D8428BB5]
Track  9  accurately ripped (confidence 3)  [FA530CC6]
Track 10  accurately ripped (confidence 3)  [4F7E3C48]
Track 11  accurately ripped (confidence 3)  [AE48D8B8]
Track 12  accurately ripped (confidence 3)  [CE79A02F]
All tracks accurately ripped
End of status report

Отчёт auCDtect Task manager&#58;

Код:
-----------------------
DON'T MODIFY THIS FILE
-----------------------
PERFORMER: auCDtect Task Manager, ver. 1.5.1RC6 build 1.5.1.7
Copyright (c) 2008-2010 y-soft. All rights reserved
http://y-soft.org
ANALYZER: auCDtect: CD records authenticity detector, version 0.8.2
Copyright (c) 2004 Oleg Berngardt. All rights reserved.
Copyright (c) 2004 Alexander Djourik. All rights reserved.
FILE: Nicolo Paganini - Complete Chamber Music (disc 07 of 10 - Complete String Quartets M.S. 20).ape
  Size: 261032393 Hash: 86B9B8D6E0A805795F0221D10B2188F7 Accuracy: -m0
  Conclusion: CDDA 100%
  Signature: 99194BCEBD6FAFD95E63F177719FA2BABFA805DE

CD 8&#58; Works for violin/s and cello

Трек лист:
In cor più non mi sento, theme and variations for two violins and cello, [08:15]
Three Duets for violin and cello:
Duet No.1 [09:13]
Duet No.2 [09:49]
Duet No.3 [09:21]
21 Divertimenti carnevaleschi for 2 violins and cello, MS4 [30:22]
Продолжительность: 01:07:00
Исполнители:
- Stefan Milenkovich (violin);
- Riccardo Agosti (cello);
- Pier Domenico Sommati (second violin)

Отчёт ЕАС&#58;

Код:
CUERipper v2.1.2 Copyright (C) 2008-10 Gregory S. Chudov
EAC extraction logfile from 1. May 2012, 14:38
Nicolo Paganini / Complete Chamber Music
Used drive  : PIONEER DVD-RW DVR-K16RS   Adapter: 1  ID: 0
Read mode               : Secure
Utilize accurate stream : Yes
Defeat audio cache      : Yes
Make use of C2 pointers : No
Read offset correction                      : 48
Overread into Lead-In and Lead-Out          : No
Fill up missing offset samples with silence : Yes
Delete leading and trailing silent blocks   : No
Null samples used in CRC calculations       : Yes
Used interface                              : Native Win32 interface for Win NT & 2000
Used output format : Internal WAV Routines
Sample format      : 44.100 Hz; 16 Bit; Stereo
TOC of the extracted CD
     Track |   Start  |  Length  | Start sector | End sector
    ---------------------------------------------------------
        1  |  0:00.00 |  1:28.17 |         0    |     6616
        2  |  1:28.17 |  0:35.45 |      6617    |     9286
        3  |  2:03.62 |  0:57.58 |      9287    |    13619
        4  |  3:01.45 |  1:04.45 |     13620    |    18464
        5  |  4:06.15 |  0:49.72 |     18465    |    22211
        6  |  4:56.12 |  0:40.25 |     22212    |    25236
        7  |  5:36.37 |  0:44.23 |     25237    |    28559
        8  |  6:20.60 |  0:51.72 |     28560    |    32456
        9  |  7:12.57 |  1:07.30 |     32457    |    37511
       10  |  8:20.12 |  5:33.00 |     37512    |    62486
       11  | 13:53.12 |  3:40.00 |     62487    |    78986
       12  | 17:33.12 |  7:20.25 |     78987    |   112011
       13  | 24:53.37 |  2:29.50 |    112012    |   123236
       14  | 27:23.12 |  6:31.38 |    123237    |   152599
       15  | 33:54.50 |  2:50.62 |    152600    |   165411
       16  | 36:45.37 |  2:13.50 |    165412    |   175436
       17  | 38:59.12 |  2:19.00 |    175437    |   185861
       18  | 41:18.12 |  1:48.50 |    185862    |   194011
       19  | 43:06.62 |  2:00.00 |    194012    |   203011
       20  | 45:06.62 |  2:02.25 |    203012    |   212186
       21  | 47:09.12 |  2:02.00 |    212187    |   221336
       22  | 49:11.12 |  2:05.50 |    221337    |   230761
       23  | 51:16.62 |  1:29.50 |    230762    |   237486
       24  | 52:46.37 |  0:35.13 |    237487    |   240124
       25  | 53:21.50 |  1:30.37 |    240125    |   246911
       26  | 54:52.12 |  1:47.00 |    246912    |   254936
       27  | 56:39.12 |  1:39.25 |    254937    |   262386
       28  | 58:18.37 |  2:37.50 |    262387    |   274211
       29  | 60:56.12 |  1:57.50 |    274212    |   283036
       30  | 62:53.62 |  0:28.60 |    283037    |   285196
       31  | 63:22.47 |  0:33.15 |    285197    |   287686
       32  | 63:55.62 |  0:30.25 |    287687    |   289961
       33  | 64:26.12 |  0:31.50 |    289962    |   292336
       34  | 64:57.62 |  0:33.33 |    292337    |   294844
       35  | 65:31.20 |  0:29.72 |    294845    |   297091
       36  | 66:01.17 |  1:15.08 |    297092    |   302724
Range status and errors
Selected range
     Filename C:\Documents and Settings\Admin\Мои документы\Моя музыка\Nicolo Paganini\1992-2007 - Complete Chamber Music\Nicolo Paganini - Complete Chamber Music (disc 08 of 10 - Works for violin of s and sello).wav
     Peak level 99.9 %
     Range quality 100.0 %
     Test CRC 6BE49283
     Copy CRC 6BE49283
     Copy OK
No errors occurred
AccurateRip summary
Track  1  accurately ripped (confidence 3)  [70FA8E2F]
Track  2  accurately ripped (confidence 3)  [2781D1E1]
Track  3  accurately ripped (confidence 3)  [5CB69DA4]
Track  4  accurately ripped (confidence 3)  [6940767F]
Track  5  accurately ripped (confidence 3)  [DAF84C27]
Track  6  accurately ripped (confidence 3)  [FDD83E12]
Track  7  accurately ripped (confidence 3)  [9A40C280]
Track  8  accurately ripped (confidence 3)  [50F85532]
Track  9  accurately ripped (confidence 3)  [13500E3C]
Track 10  accurately ripped (confidence 3)  [B8045243]
Track 11  accurately ripped (confidence 3)  [FD3AD0AE]
Track 12  accurately ripped (confidence 3)  [C2CBAF92]
Track 13  accurately ripped (confidence 3)  [EB89AB08]
Track 14  accurately ripped (confidence 3)  [F40A1035]
Track 15  accurately ripped (confidence 3)  [3A46982D]
Track 16  accurately ripped (confidence 3)  [231DB1C0]
Track 17  accurately ripped (confidence 3)  [E4A10F0D]
Track 18  accurately ripped (confidence 3)  [0DC0BD92]
Track 19  accurately ripped (confidence 3)  [92047E67]
Track 20  accurately ripped (confidence 3)  [5DFF1569]
Track 21  accurately ripped (confidence 3)  [E35D3BE6]
Track 22  accurately ripped (confidence 3)  [3B0211BE]
Track 23  accurately ripped (confidence 3)  [A6472D45]
Track 24  accurately ripped (confidence 3)  [C055F1B9]
Track 25  accurately ripped (confidence 3)  [98759885]
Track 26  accurately ripped (confidence 3)  [7C87265B]
Track 27  accurately ripped (confidence 3)  [B50CBBB3]
Track 28  accurately ripped (confidence 3)  [F5606083]
Track 29  accurately ripped (confidence 3)  [C5CE7CD7]
Track 30  accurately ripped (confidence 3)  [A06B10D0]
Track 31  accurately ripped (confidence 3)  [1227CB46]
Track 32  accurately ripped (confidence 3)  [2EFF25EE]
Track 33  accurately ripped (confidence 3)  [50B8E8B9]
Track 34  accurately ripped (confidence 3)  [3F06F680]
Track 35  accurately ripped (confidence 3)  [A0D8503E]
Track 36  accurately ripped (confidence 3)  [2B54834D]
All tracks accurately ripped
End of status report

Отчёт auCDtect Task manager&#58;

Код:
-----------------------
DON'T MODIFY THIS FILE
-----------------------
PERFORMER: auCDtect Task Manager, ver. 1.5.1RC6 build 1.5.1.7
Copyright (c) 2008-2010 y-soft. All rights reserved
http://y-soft.org
ANALYZER: auCDtect: CD records authenticity detector, version 0.8.2
Copyright (c) 2004 Oleg Berngardt. All rights reserved.
Copyright (c) 2004 Alexander Djourik. All rights reserved.
FILE: Nicolo Paganini - Complete Chamber Music (disc 08 of 10 - Works for violin of s and sello).ape
  Size: 287975145 Hash: 73BC9EE6C10E16B24F27620159A62397 Accuracy: -m0
  Conclusion: CDDA 100%
  Signature: 8B3CD2D43D011CB8D72137607760A1349D42A8C1

CD 9&#58; Three Duets for violin and bassoon, MS130

Трек лист:
Duet No.1 [16:57]
Duet No.2 [16:52]
Duet No.3 [16:19]
Продолжительность: 00:50:08
Исполнители:
- Salvatore Accardo (violin);
- Claudio Gonella (bassoon)

Отчёт ЕАС&#58;

Код:
CUERipper v2.1.2 Copyright (C) 2008-10 Gregory S. Chudov
EAC extraction logfile from 1. May 2012, 14:50
Nicolo Paganini / Complete Chamber Music
Used drive  : PIONEER DVD-RW DVR-K16RS   Adapter: 1  ID: 0
Read mode               : Secure
Utilize accurate stream : Yes
Defeat audio cache      : Yes
Make use of C2 pointers : No
Read offset correction                      : 48
Overread into Lead-In and Lead-Out          : No
Fill up missing offset samples with silence : Yes
Delete leading and trailing silent blocks   : No
Null samples used in CRC calculations       : Yes
Used interface                              : Native Win32 interface for Win NT & 2000
Used output format : Internal WAV Routines
Sample format      : 44.100 Hz; 16 Bit; Stereo
TOC of the extracted CD
     Track |   Start  |  Length  | Start sector | End sector
    ---------------------------------------------------------
        1  |  0:00.00 | 12:04.07 |         0    |    54306
        2  | 12:04.07 |  4:54.32 |     54307    |    76388
        3  | 16:58.39 | 12:11.71 |     76389    |   131284
        4  | 29:10.35 |  4:41.18 |    131285    |   152377
        5  | 33:51.53 |  8:38.27 |    152378    |   191254
        6  | 42:30.05 |  1:55.64 |    191255    |   199943
        7  | 44:25.69 |  5:47.07 |    199944    |   225975
Range status and errors
Selected range
     Filename C:\Documents and Settings\Admin\Мои документы\Моя музыка\Nicolo Paganini\1992-2007 - Complete Chamber Music\Nicolo Paganini - Complete Chamber Music (disc 09 of 10 - Three Duets for violin and bassoon M.S. 130).wav
     Peak level 97.9 %
     Range quality 100.0 %
     Test CRC 8F994C76
     Copy CRC 8F994C76
     Copy OK
No errors occurred
AccurateRip summary
Track  1  cannot be verified as accurate (confidence 3)  [7AE2661B], AccurateRip returned [82375F5B]
Track  2  cannot be verified as accurate (confidence 3)  [453AAC06], AccurateRip returned [8A4088F7]
Track  3  cannot be verified as accurate (confidence 3)  [53E28831], AccurateRip returned [EC5AAC4B]
Track  4  cannot be verified as accurate (confidence 3)  [BF9552D2], AccurateRip returned [3D7EA62B]
Track  5  cannot be verified as accurate (confidence 3)  [403378A6], AccurateRip returned [EC8E354A]
Track  6  cannot be verified as accurate (confidence 3)  [712323CE], AccurateRip returned [554DDC91]
Track  7  cannot be verified as accurate (confidence 3)  [AD7C81DF], AccurateRip returned [C11FEF16]
No tracks could be verified as accurate
You may have a different pressing from the one(s) in the database
End of status report

Отчёт auCDtect Task manager&#58;

Код:
-----------------------
DON'T MODIFY THIS FILE
-----------------------
PERFORMER: auCDtect Task Manager, ver. 1.5.1RC6 build 1.5.1.7
Copyright (c) 2008-2010 y-soft. All rights reserved
http://y-soft.org
ANALYZER: auCDtect: CD records authenticity detector, version 0.8.2
Copyright (c) 2004 Oleg Berngardt. All rights reserved.
Copyright (c) 2004 Alexander Djourik. All rights reserved.
FILE: Nicolo Paganini - Complete Chamber Music (disc 09 of 10 - Three Duets for violin and bassoon M.S. 130).ape
  Size: 203182328 Hash: B5BDF1C61264F81770D72B0AEDA3427B Accuracy: -m0
  Conclusion: CDDA 92%
  Signature: 24F816E4023630C4E99F89D03DF505DAD5796C98

CD 10&#58; Quattro Notturni a quartetto, MS15 and other works

Трек лист:
Quattro Notturni a quartetto for two violins, viola and cello, MS15:
Notturno No. 1, [06:28]
Notturno No. 2, [07:11]
Notturno No. 3, [04:14]
Notturno No. 4, [03:31]
Quartet No. 7 in E major for two violins, viola and cello, MS34 (transcription from quartet for strings and guitar) [22:49]
Sonata per Rovene per mandolino e chitarra, MS14 [02:56]
Serenata per mandolino e chitarra, MS16 [02:53]
Minuetto per l’amandorlino per mandolino solo, MS106 [07:05]
Продолжительность: 00:57:07
Исполнители:
Quartetto d’archi Paganini:
- Bruno Pignata (violin);
- Gian Luca Allocco (violin);
- Ernest Braucher (viola);
- Dario De Stefano (cello);
- Dorina Frati (Genoese mandolin);
- Piera Dadomo (guitar)

Отчёт ЕАС&#58;

Код:
CUERipper v2.1.2 Copyright (C) 2008-10 Gregory S. Chudov
EAC extraction logfile from 1. May 2012, 15:03
Nicolo Paganini / Complete Chamber Music
Used drive  : PIONEER DVD-RW DVR-K16RS   Adapter: 1  ID: 0
Read mode               : Secure
Utilize accurate stream : Yes
Defeat audio cache      : Yes
Make use of C2 pointers : No
Read offset correction                      : 48
Overread into Lead-In and Lead-Out          : No
Fill up missing offset samples with silence : Yes
Delete leading and trailing silent blocks   : No
Null samples used in CRC calculations       : Yes
Used interface                              : Native Win32 interface for Win NT & 2000
Used output format : Internal WAV Routines
Sample format      : 44.100 Hz; 16 Bit; Stereo
TOC of the extracted CD
     Track |   Start  |  Length  | Start sector | End sector
    ---------------------------------------------------------
        1  |  0:00.00 |  4:49.30 |         0    |    21704
        2  |  4:49.30 |  1:39.04 |     21705    |    29133
        3  |  6:28.34 |  4:50.30 |     29134    |    50913
        4  | 11:18.64 |  2:21.59 |     50914    |    61547
        5  | 13:40.48 |  2:20.03 |     61548    |    72050
        6  | 16:00.51 |  1:54.03 |     72051    |    80603
        7  | 17:54.54 |  2:27.05 |     80604    |    91633
        8  | 20:21.59 |  1:04.29 |     91634    |    96462
        9  | 21:26.13 |  8:07.56 |     96463    |   133043
       10  | 29:33.69 |  5:57.36 |    133044    |   159854
       11  | 35:31.30 |  6:34.52 |    159855    |   189456
       12  | 42:06.07 |  6:47.34 |    189457    |   220015
       13  | 48:53.41 |  1:47.63 |    220016    |   228103
       14  | 50:41.29 |  1:09.26 |    228104    |   233304
       15  | 51:50.55 |  2:03.03 |    233305    |   242532
       16  | 53:53.58 |  0:50.34 |    242533    |   246316
       17  | 54:44.17 |  3:31.17 |    246317    |   262158
       18  | 58:15.34 |  2:06.03 |    262159    |   271611
       19  | 60:21.37 |  1:28.50 |    271612    |   278261
Range status and errors
Selected range
     Filename C:\Documents and Settings\Admin\Мои документы\Моя музыка\Nicolo Paganini\1992-2007 - Complete Chamber Music\Nicolo Paganini - Complete Chamber Music (disc 10 of 10 - Quattro Notturni a quartetto and other works).wav
     Peak level 99.3 %
     Range quality 100.0 %
     Test CRC FDD303C4
     Copy CRC FDD303C4
     Copy OK
No errors occurred
AccurateRip summary
Track  1  cannot be verified as accurate (confidence 3)  [F8B5CFD1], AccurateRip returned [529020D0]
Track  2  cannot be verified as accurate (confidence 3)  [ABAD45A9], AccurateRip returned [200E06B1]
Track  3  cannot be verified as accurate (confidence 3)  [3DDC5048], AccurateRip returned [7FB6C834]
Track  4  cannot be verified as accurate (confidence 3)  [D176A98A], AccurateRip returned [00D54287]
Track  5  cannot be verified as accurate (confidence 3)  [1BBF416C], AccurateRip returned [BF7727AF]
Track  6  cannot be verified as accurate (confidence 3)  [9863FC2C], AccurateRip returned [3A5FE4D3]
Track  7  cannot be verified as accurate (confidence 3)  [F6F159DE], AccurateRip returned [2D631951]
Track  8  cannot be verified as accurate (confidence 3)  [1F7ED988], AccurateRip returned [0B75FDC3]
Track  9  cannot be verified as accurate (confidence 3)  [B6B90F26], AccurateRip returned [CBB9501E]
Track 10  cannot be verified as accurate (confidence 3)  [E564B026], AccurateRip returned [7C6D17A4]
Track 11  cannot be verified as accurate (confidence 3)  [361C8EC5], AccurateRip returned [EEECD37B]
Track 12  cannot be verified as accurate (confidence 3)  [E33CD796], AccurateRip returned [B7EC8B42]
Track 13  cannot be verified as accurate (confidence 3)  [379132DC], AccurateRip returned [16B2919D]
Track 14  cannot be verified as accurate (confidence 3)  [51BE2FAB], AccurateRip returned [667867D3]
Track 15  cannot be verified as accurate (confidence 3)  [14B34318], AccurateRip returned [7545A1A0]
Track 16  cannot be verified as accurate (confidence 3)  [56225819], AccurateRip returned [C23FBB62]
Track 17  cannot be verified as accurate (confidence 3)  [F26C3B88], AccurateRip returned [DBE5A373]
Track 18  cannot be verified as accurate (confidence 3)  [DFEB6FA8], AccurateRip returned [490F8D83]
Track 19  cannot be verified as accurate (confidence 3)  [59A198B1], AccurateRip returned [C3223ABF]
No tracks could be verified as accurate
You may have a different pressing from the one(s) in the database
End of status report

Отчёт auCDtect Task manager&#58;

Код:
-----------------------
DON'T MODIFY THIS FILE
-----------------------
PERFORMER: auCDtect Task Manager, ver. 1.5.1RC6 build 1.5.1.7
Copyright (c) 2008-2010 y-soft. All rights reserved
http://y-soft.org
ANALYZER: auCDtect: CD records authenticity detector, version 0.8.2
Copyright (c) 2004 Oleg Berngardt. All rights reserved.
Copyright (c) 2004 Alexander Djourik. All rights reserved.
FILE: Nicolo Paganini - Complete Chamber Music (disc 10 of 10 - Quattro Notturni a quartetto and other works).ape
  Size: 223027825 Hash: 961E9BA26E08028776E62AA5544C66AE Accuracy: -m0
  Conclusion: CDDA 42%
  Signature: 826798F9866C29B0700F0B244A301B332801D905
Other forum [Profile] [PM]
Display posts from previous:    
Reply to topic

The time now is: Today 23:55

All times are GMT + 3 Hours



You cannot post new topics in this forum
You cannot reply to topics in this forum
You cannot edit your posts in this forum
You cannot delete your posts in this forum
You cannot vote in polls in this forum
You cannot attach files in this forum
You cannot download files in this forum