Сегодня идет свободное скачивание без начисления Download

Джоуи / Joey / Сезон: 1 (2) / Серии: 1-24 из 24 (Scott Silveri, Shana Goldberg-Meehan) [2004-2005 гг., ситком, SATRip] MVO (ТНТ)

Ответить на тему
 
Автор
Сообщение

Omen ®

Стаж: 5 лет 11 месяцев

Сообщений: 184329

Торрент-статистика

Пост 02-Июл-2014 17:00

[Цитировать]

Джоуи / Joey
Сезон 1
Годы выпуска: 2004-2005
Страна: США
Жанр: ситком
Продолжительность: ~ 20-22 минуты
Перевод: Профессиональный (многоголосый закадровый) /ТНТ/
Запись: Beer kolesik Drinkers, #Antisnl#
Рип: Faker020285

Авторы идеи: Scott Silveri, Shana Goldberg-Meehan
В ролях: Matt LeBlanc, Andrea Anders, Paulo Costanzo, Jennifer Coolidge, Drea de Matteo, Miguel A. Núñez, Jr.
Описание: Бестолковый, но веселый и добродушный актер Джо Трибиани приезжает в Лос-Анджелес, где ему обещают новую работу. Поселившись в квартире, которую снимает ему сестра, Джо развивает бурную деятельность: флиртует с замужней соседкой Алекс, обучает своего племянника Майкла способам знакомства с девушками, пробует играть в театральных постановках и занимается еще кучей разных вещей. При этом благодаря своей бесшабашности Джо постоянно попадает в запутанные, а порой и забавные ситуации.
Доп. информация: Новый перевод, картинка с ТНТ, на наш взгляд, лучше двдрипов, что есть на этом трекере
В этот показ канал ТНТ почему-то не показал начало (до заставки) и финальные титры в 1 серии, а также 1,5 минуты видео в 3 серии, сделал вставки из исходников пользователя iTurtle
Сэмпл: http://www.sendspace.com/file/grtdar
Качество: SATRip
Формат: AVI
Видео кодек: XviD
Аудио кодек: MP3
Видео: 704x400 (1.76:1), 25 fps, XviD build 65 ~1499 kbps avg, 0.21 bit/pixel
Аудио: 48 kHz, MPEG Layer 3, 2 ch, ~192.00 kbps avg

MediaInfo

Формат : AVI
Формат/Информация : Audio Video Interleave
Размер файла : 270 Мбайт
Продолжительность : 22 м.
Общий поток : 1701 Кбит/сек
Программа кодирования : VirtualDubMod 1.5.10.3 | www.virtualdub-fr.org || (build 2550/release)
Библиотека кодирования : VirtualDubMod build 2550/release
Видео
Идентификатор : 0
Формат : MPEG-4 Visual
Профиль формата : Advanced Simple@L5
Параметр BVOP формата : 2
Параметр QPel формата : Нет
Параметр GMC формата : Без точки перехода
Параметр матрицы формата : Default (H.263)
Идентификатор кодека : XVID
Идентификатор кодека/Подсказка : XviD
Продолжительность : 22 м.
Битрейт : 1500 Кбит/сек
Ширина : 704 пикселя
Высота : 400 пикселей
Соотношение сторон : 16:9
Частота кадров : 25,000 кадров/сек
Цветовое пространство : YUV
Субдискретизация насыщенности : 4:2:0
Битовая глубина : 8 бит
Тип развёртки : Прогрессивная
Метод сжатия : С потерями
Бит/(Пиксели*Кадры) : 0.213
Размер потока : 238 Мбайт (88%)
Библиотека кодирования : XviD 65
Аудио
Идентификатор : 1
Формат : MPEG Audio
Версия формата : Version 1
Профиль формата : Layer 3
Режим : Joint stereo
Расширение режима : MS Stereo
Идентификатор кодека : 55
Идентификатор кодека/Подсказка : MP3
Продолжительность : 22 м.
Вид битрейта : Постоянный
Битрейт : 192 Кбит/сек
Каналы : 2 канала
Частота : 48,0 КГц
Метод сжатия : С потерями
Размер потока : 30,4 Мбайт (11%)
Выравнивание : Соединение по промежуткам
Продолжительность промежутка : 40 мс. (1,00 видеокадр)
Время предзагрузки промежутка : 504 мс.
Библиотека кодирования : LAME3.99r
Настройки программы : -m j -V 4 -q 0 -lowpass 18.6 -b 192

Скриншоты





Внимание! Раздача ведётся путём добавления новых серий

Внимание! Раздача ведётся путём добавления новых серий; при каждом добавлении создётся новый торрент. Чтобы начать докачку новой серии, пользователям необходимо сделать следующее:
(1) остановить скачивание,
(2) удалить старый торрент у себя из клиента (старые серии удалять не надо),
(3) скачать новый торрент и запустить его у себя в клиенте вместо старого, при этом указать клиенту путь в старую папку куда и должно происходить скачивание новых серий.
Ваш клиент при этом должен произвести хеширование (проверку) старой папки (если не производит сам - помогите ему сделать это), и будет докачивать только те серии которых у вас ещё нет. Старые серии при этом не удаляются, а продолжают раздаваться!
Eсли вы уже удалили старые серии, то предотвратить повторную закачку старых серий можно, отжав галочку в соответсвующих местах при запуске нового торрента. По возможности, желательно не удалять старые серии как можно дольше чтобы релизёр не столько продолжал раздавать старые серии, а смог сконцентрироваться на новых.
Вне форума [Профиль] [ЛС]
Показать сообщения:    
Ответить на тему

Текущее время: Сегодня 20:28

Часовой пояс: GMT + 3



Вы не можете начинать темы
Вы не можете отвечать на сообщения
Вы не можете редактировать свои сообщения
Вы не можете удалять свои сообщения
Вы не можете голосовать в опросах
Вы не можете прикреплять файлы к сообщениям
Вы не можете скачивать файлы