Сегодня идет свободное скачивание без начисления Download

Последний корабль / The Last Ship (Майкл Кэтлман, Джек Бендер, Пол Холахан) [2014 г., фантастика, боевик, триллер, драма слова, HDTV]

Ответить на тему
 
Автор
Сообщение

Clavik ®

Пол:

Стаж: 4 года 7 месяцев

Сообщений: 2413

Откуда: Украина

Торрент-статистика

Пост 02-Июл-2014 14:09

[Цитировать]

Последний корабль / The Last Ship
Год выпуска: 2014
Страна: США
Жанр: фантастика, боевик, триллер, драма слова
Продолжительность: 43 мин.
Перевод: Профессиональный (многоголосый закадровый)
Режиссер: Майкл Кэтлман, Джек Бендер, Пол Холахан
Продюссер: Тони Марк, Эллен Стэффорд, Тодд Арноу
Сценарий: Уильям Бринкли, Стивен Кэйн, Джош Шер
Премьера в мире: 22 июня 2014


В ролях: Рона Митра, Эрик Дэйн, Адам Болдуин, Михаэлла МакМанус, Трэвис Ван Винкл, Чарльз Парнелл, Кристина Элмор, Джоко Симс, Джон Пайпер-Фергюсон и др.
Описание: Глобальная пандемия уничтожает восемьдесят процентов населения планеты. Военный эсминец Соединенных Штатов отправляется в долгое путешествие с единственной задачей — выживать ровно столько, сколько потребуется для создания вакцины. И таким образом спасти человечество от вымирания.
Последний корабль — это экранизация постапокаллиптической новеллы, написанной в 1988 году американским писателем Уильямом Брайнкли. По сюжету книги в центре событий находится американский эсминец Натан Джеймс, который находится в плавании в тот момент, когда начинается ядерная война, уничтожающая всю цивилизацию на Земле. Команда занимается поисками безопасного места, где можно было бы высадиться и встретить хоть кого-то, кто мог выжить во время этой всемирной катастрофы. Ситуация на корабле накаляется и назревает бунт, но его удается избежать благодаря опытному капитану. Не смотря на то, что по сюжету книги экипаж обнаруживает последнюю подводную лодку СССР и входит с ней в контакт, на канале TNT заявили, что концовка сериала будет изменена. Ведь СССР уже не существует и не рассматривается как враг.
Сценарий сериала Последний корабль не будет в точности повторять историю из книги, а будет видоизменен под сегодняшние реалии. Вместо ядерной катастрофы, люди столкнуться с неизлечимым заболеванием, которое будет угрожать всему живому на Земле.
серий 1-2
Качество: HDTV
Формат: MKV
Аудио кодек: MP3
Видео: AVC 720*400
Аудио: (AC-3, 48,0 kHz, 2 ch, 384 kb/s)

MediaInfo

Общее
Уникальный идентификатор : 230509005725818634712731438523045722352 (0xAD6A6B6EB208059D9B8CA3C7BD8D38F0)
Полное имя : D:\Последний корабль (сезон 1) The Last Ship (2014) WEB-DL 720p - LostFilm\The.Last.Ship.S01E01.720p.rus.LostFilm.TV.mkv
Формат : Matroska
Версия формата : Version 4 / Version 2
Размер файла : 1,85 Гбайт
Продолжительность : 45 м.
Общий поток : 5792 Кбит/сек
Дата кодирования : UTC 2014-06-24 19:06:17
Программа кодирования : mkvmerge v7.0.0 ('Where We Going') 64bit built on Jun 9 2014 15:16:27
Библиотека кодирования : libebml v1.3.0 + libmatroska v1.4.1
DURATION : 00:45:42.208000000
NUMBER_OF_FRAMES : 85694
NUMBER_OF_BYTES : 131625984
_STATISTICS_WRITING_APP : mkvmerge v7.0.0 ('Where We Going') 64bit built on Jun 9 2014 15:16:27
_STATISTICS_WRITING_DATE_UTC : 2014-06-24 19:06:17
_STATISTICS_TAGS : BPS DURATION NUMBER_OF_FRAMES NUMBER_OF_BYTES
Видео
Идентификатор : 1
Формат : AVC
Формат/Информация : Advanced Video Codec
Профиль формата : High@L3.1
Параметр CABAC формата : Нет
Параметр ReFrames формата : 2 кадра
Идентификатор кодека : V_MPEG4/ISO/AVC
Продолжительность : 45 м.
Битрейт : 4909 Кбит/сек
Номинальный битрейт : 4000 Кбит/сек
Ширина : 720 пикселей
Высота : 400 пикселей
Соотношение сторон : 16:9
Режим частоты кадров : Постоянный
Частота кадров : 23,976 кадра/сек
Цветовое пространство : YUV
Субдискретизация насыщенности : 4:2:0
Битовая глубина : 8 бит
Тип развёртки : Прогрессивная
Бит/(Пиксели*Кадры) : 0.222
Размер потока : 1,57 Гбайт (85%)
Библиотека кодирования : x264 core 112 r1834 a51816a
Настройки программы : cabac=0 / ref=3 / deblock=1:0:0 / analyse=0x1:0x111 / me=hex / subme=7 / psy=1 / psy_rd=1.00:0.00 / mixed_ref=1 / me_range=16 / chroma_me=1 / trellis=1 / 8x8dct=0 / cqm=0 / deadzone=21,11 / fast_pskip=1 / chroma_qp_offset=-2 / threads=6 / sliced_threads=0 / nr=0 / decimate=1 / interlaced=0 / constrained_intra=0 / bframes=3 / b_pyramid=2 / b_adapt=1 / b_bias=0 / direct=1 / weightb=1 / open_gop=0 / weightp=2 / keyint=250 / keyint_min=25 / scenecut=40 / intra_refresh=0 / rc_lookahead=40 / rc=abr / mbtree=1 / bitrate=4000 / ratetol=1.0 / qcomp=0.60 / qpmin=0 / qpmax=51 / qpstep=4 / vbv_maxrate=5000 / vbv_bufsize=2000 / ip_ratio=1.40 / aq=1:1.00 / nal_hrd=none
Язык : English
Default : Да
Forced : Нет
Основные цвета : BT.709
Характеристики трансфера : BT.709
Коэффициенты матрицы : BT.709
Аудио #1
Идентификатор : 2
Формат : AC-3
Формат/Информация : Audio Coding 3
Расширение режима : CM (complete main)
Параметр Endianness формата : Big
Идентификатор кодека : A_AC3
Продолжительность : 45 м.
Вид битрейта : Постоянный
Битрейт : 384 Кбит/сек
Каналы : 2 канала
Расположение каналов : Front: L R
Частота : 48,0 КГц
Битовая глубина : 16 бит
Метод сжатия : С потерями
Размер потока : 126 Мбайт (7%)
Заголовок : LostFilm
Язык : Russian
Default : Да
Forced : Нет

Скриншоты

           

_________________


Вне форума [Профиль] [ЛС]
Похожие темы
Форум Тема Автор Торрент Отв. Посл. сообщение
./templates/default/images/folder_dl.gif Компьютерная литература Михаил Пантаев | Матанализ с человеческим лицом, или Как выжить после предельного перехода. Полный курс математического анализа. Том 2 (2016) [PDF] moralis
1 | 0

0 | 1508

13

2016-03-09 21:50
moralis Последнее
./templates/default/images/folder_dl.gif Справочники, энциклопедии и словари Михаил Пантаев | Матанализ с человеческим лицом, или Как выжить после предельного перехода. Полный курс математического анализа. Том 1 (2015) [PDF] moralis
1 | 0

0 | 1417

9

2016-03-09 21:51
moralis Последнее
./templates/default/images/folder_dl.gif Новинки (BD|HDTV|DVD) Звёздные войны: Последние джедаи / Star Wars: The Last Jedi (Райан Джонсон) [2017, фантастика, фэнтези, боевик, приключения, UHD BDRemux 2160p] DUB | iTunes Theseus
1 | 0

0 | 326

2

2018-03-15 14:03
Theseus Последнее
Показать сообщения:    
Ответить на тему

Текущее время: Сегодня 07:32

Часовой пояс: GMT + 3



Вы не можете начинать темы
Вы не можете отвечать на сообщения
Вы не можете редактировать свои сообщения
Вы не можете удалять свои сообщения
Вы не можете голосовать в опросах
Вы не можете прикреплять файлы к сообщениям
Вы не можете скачивать файлы