Сегодня идет свободное скачивание без начисления Download

Гриффины / Family Guy / Сезон: 7 / Серии: 8-16 из 16 (Сет Макфарлейн) [2008, Мультсериал, комедия, пародия, мюзикл, DVDRip | AVC] MVO 2x2+Filiza

Ответить на тему
 
Автор
Сообщение

Omen ®

Стаж: 5 лет

Сообщений: 190529

Торрент-статистика

Пост 02-Июл-2014 11:00

[Цитировать]

Гриффины / Family Guy
Страна: США
Жанр: Мультсериал, комедия, пародия, мюзикл
Продолжительность: ~22 минуты
Год выпуска: 2008
Перевод: Профессиональный (многоголосый закадровый) 2x2
Перевод 2: Профессиональный (многоголосый закадровый) Filiza Studio
Русские субтитры: нет
Режиссёр: Сет Макфарлейн
Роли озвучивали: Сет МакФарлейн, Алекс Борштейн, Сет Грин, Мила Кунис, Майк Генри и другие
Описание: "Гриффины" (Family Guy) - анимационное ТВ-Шоу, созданное Сетом МакФерлайном (Seth MacFarlane) для телеканала FOX. Как нетрудно догадаться, главными героями шоу является семейка Гриффинов: тупой, но полный сумашедших идей, составляющих львиную долю шуток сериала, отец семейства Питер; его любящя и терпеливая жена Лойс, всеми силами пытающаяся превратить Гриффинов в нормальную семью; их интеллектуально развитый не по годам, вынашивающий идею мирового господства младший сын Стьюи; дочь-ботаник, обречённая из-за этого на одиночество и непонимание как в школе так и дома, Мэг; и 13-ти летний отсталый в развитии лет на 10, сын Крис. Также полноценным членом семьи является пёс Брайн - склонный к меланхолии эстет, спокойно наблюдающий с бокалом вина в лапе над приключениями Питера и остальных членов семьи (и это при всём притом, что остальные собаки в сериале не являются очеловеченными).

Список серий

S07E08 Family Gay
S07E09 The Juice is Loose
S07E10 FOX-y Lady
S07E11 Not All Dogs Go to Heaven
S07E12 420
S07E13 Stew-roids
S07E14 We Love You,Conrad
S07E15 Three Kings
S07E16 Peter's Progress
Доп. информация: русских сабов под DVDRip, к сожалению, не нашел.
За основу взят AVC-рип Ctrl-SD, русские дорожки 2x2, взятые из раздачи представлены в двух вариантах - со вставками Filiza Studio на вырезанные моменты и со вставками оригинальной английской озвучки на выбор. В 8 и 9 серии присутствуют дополнительные дорожки с комментариями на английском, в 12 серии 2х2 ничего не резал, так что дорога полная.
Качество: DVDRip
Формат: MKV
Видео: MPEG4 Video (H264) 716x480 (4:3) 23.976fps ~1200Kbps
Аудио: Dolby AC3 48000Hz stereo 192Kbps [2x2+Filiza Studio]
Аудио 2: Dolby AC3 48000Hz stereo 192Kbps [2x2+Original]
Аудио 3: MP3 48000Hz stereo 128Kbps [Filiza Studio]
Аудио 4: Dolby AC3 48000Hz 5.1 448Kbps [Original]
Субтитры: английские

Подробные технические данные

GeneralUnique ID : 230867918403756666535261812781845256538 (0xADAF8B31935DD9C39AF27A6EADC7195A)Complete name : D:\! famg\Family.Guy.S07.NTSC.DVD.2XRus.Eng\Family.Guy.S07E08.Family.Gay.DVDRip.2xRus.Eng.mkvFormat : MatroskaFormat version : Version 4 / Version 2File size : 314 MiBDuration : 22mn 52sOverall bit rate : 1 919 KbpsEncoded date : UTC 2014-07-01 07:05:13Writing application : mkvmerge v6.6.0 ('The Edge Of The In Between') built on Dec 1 2013 17:55:00Writing library : libebml v1.3.0 + libmatroska v1.4.1
VideoID : 1Format : AVCFormat/Info : Advanced Video CodecFormat profile : High@L3.1Format settings, CABAC : YesFormat settings, ReFrames : 12 framesCodec ID : V_MPEG4/ISO/AVCDuration : 22mn 52sNominal bit rate : 892 KbpsWidth : 716 pixelsHeight : 480 pixelsDisplay aspect ratio : 4:3Frame rate mode : ConstantFrame rate : 23.976 fpsColor space : YUVChroma subsampling : 4:2:0Bit depth : 8 bitsScan type : ProgressiveBits/(Pixel*Frame) : 0.108Writing library : x264 core 67 r1165M 6841c5eEncoding settings : cabac=1 / ref=12 / deblock=1:1:1 / analyse=0x3:0x133 / me=umh / subme=8 / psy_rd=0.6:0.0 / mixed_ref=1 / me_range=16 / chroma_me=1 / trellis=2 / 8x8dct=1 / cqm=0 / deadzone=21,11 / chroma_qp_offset=-2 / threads=3 / nr=0 / decimate=1 / mbaff=0 / bframes=16 / b_pyramid=1 / b_adapt=1 / b_bias=0 / direct=3 / wpredb=0 / keyint=250 / keyint_min=25 / scenecut=40 / rc=2pass / bitrate=892 / ratetol=1.0 / qcomp=0.60 / qpmin=10 / qpmax=51 / qpstep=4 / cplxblur=20.0 / qblur=0.5 / ip_ratio=1.40 / pb_ratio=1.30 / aq=0Language : EnglishDefault : YesForced : No
Audio #1ID : 2Format : AC-3Format/Info : Audio Coding 3Mode extension : CM (complete main)Format settings, Endianness : BigCodec ID : A_AC3Duration : 22mn 52sBit rate mode : ConstantBit rate : 192 KbpsChannel(s) : 2 channelsChannel positions : Front: L RSampling rate : 48.0 KHzBit depth : 16 bitsCompression mode : LossyStream size : 31.4 MiB (10%)Title : 2x2+FilizaLanguage : RussianDefault : YesForced : No
Audio #2ID : 3Format : AC-3Format/Info : Audio Coding 3Mode extension : CM (complete main)Format settings, Endianness : BigCodec ID : A_AC3Duration : 22mn 52sBit rate mode : ConstantBit rate : 192 KbpsChannel(s) : 2 channelsChannel positions : Front: L RSampling rate : 48.0 KHzBit depth : 16 bitsCompression mode : LossyStream size : 31.4 MiB (10%)Title : 2x2+OriginalLanguage : RussianDefault : NoForced : No
Audio #3ID : 4Format : MPEG AudioFormat version : Version 1Format profile : Layer 3Mode : Joint stereoMode extension : MS StereoCodec ID : A_MPEG/L3Codec ID/Hint : MP3Duration : 22mn 52sBit rate mode : ConstantBit rate : 128 KbpsChannel(s) : 2 channelsSampling rate : 48.0 KHzCompression mode : LossyStream size : 20.9 MiB (7%)Title : FilizaLanguage : RussianDefault : NoForced : No
Audio #4ID : 5Format : AC-3Format/Info : Audio Coding 3Mode extension : CM (complete main)Format settings, Endianness : BigCodec ID : A_AC3Duration : 22mn 52sBit rate mode : ConstantBit rate : 448 KbpsChannel(s) : 6 channelsChannel positions : Front: L C R, Side: L R, LFESampling rate : 48.0 KHzBit depth : 16 bitsCompression mode : LossyStream size : 73.3 MiB (23%)Language : EnglishDefault : NoForced : No
Audio #5ID : 7Format : AACFormat/Info : Advanced Audio CodecFormat profile : HE-AAC / LCCodec ID : A_AACDuration : 22mn 52sChannel(s) : 2 channelsChannel positions : Front: L RSampling rate : 48.0 KHz / 24.0 KHzCompression mode : LossyTitle : CommentaryLanguage : EnglishDefault : NoForced : No
TextID : 6Format : UTF-8Codec ID : S_TEXT/UTF8Codec ID/Info : UTF-8 Plain TextLanguage : EnglishDefault : NoForced : No

Скриншоты

Вне форума [Профиль] [ЛС]
Показать сообщения:    
Ответить на тему

Текущее время: Сегодня 23:31

Часовой пояс: GMT + 3



Вы не можете начинать темы
Вы не можете отвечать на сообщения
Вы не можете редактировать свои сообщения
Вы не можете удалять свои сообщения
Вы не можете голосовать в опросах
Вы не можете прикреплять файлы к сообщениям
Вы не можете скачивать файлы