Сегодня идет свободное скачивание без начисления Download

Континуум / Continuum (Сезон 3 / полный / серии: 13 из 13) (Пэт Уильямс / Pat Williams ...) [2014г., фантастика, триллер, ..., WEB-DLRip 1080р] MVO (LostFilm)

Ответить на тему
 
Автор
Сообщение

Omen ®

Стаж: 5 лет 6 месяцев

Сообщений: 186946

Торрент-статистика

Пост 26-Июн-2014 10:04

[Цитировать]

Континуум / Continuum - Год выпуска: 2014
Страна: США
Жанр:Фантастика, триллер
Перевод: Многоголосый закадровый, профессиональный - LostFilm


Режиссер: Пэт Уильямс, Джон Кассар
Актеры: Рэйчел Николс, Виктор Уэбстер, Эрик Кнудсен, Стефен Лобо, Ричард Хэрмон, Брайан Маркинсон, Дженнифер Спенс и др.
Описание фильма:
Группа террористов-фанатиков, избежавшая казни в 2077 году, перемещается в наше время вместе с преследующим их полицейским Кирой Камерон.
Продолжительность: ~00:43:00 серия
Качество видео: WEB-DLRip 1080p
Видеокодек: AVC
Формат: MKV
Битрейт видео: ~5242 kb/s
Размер кадра: 1920x1080 (16:9)
Аудио Rus: (AC-3, 48,0 kHz, 2 ch, 384 kb/s) - многоголосый закадровый
Аудио Eng: (AC-3, 48,0 kHz, 2 ch, 384 kb/s) - оригинал Сэмпл

MediaInfo

Общее
Уникальный идентификатор : 218305969036217105028313846865066415269 (0xA43C334595C05B89A1A0781291B754A5)
Полное имя : D:\Континуум (Сезон 3) Continuum (2014) WEB-DLRip 1080p - LostFilm\Continuum.S03E01.1080p.rus.LostFilm.TV.mkv
Формат : Matroska
Версия формата : Version 2
Размер файла : 1,84 Гбайт
Продолжительность : 43 м.
Общий поток : 6012 Кбит/сек
Дата кодирования : UTC 2014-03-19 22:33:41
Программа кодирования : mkvmerge v4.2.0 ('No Talking') сборка от Jul 28 2010 18:38:23
Библиотека кодирования : libebml v1.0.0 + libmatroska v1.0.0
Видео
Идентификатор : 1
Формат : AVC
Формат/Информация : Advanced Video Codec
Профиль формата : [url=mailto:High@L4.0]High@L4.0[/url]
Параметр CABAC формата : Да
Параметр ReFrames формата : 2 кадра
Идентификатор кодека : V_MPEG4/ISO/AVC
Продолжительность : 43 м.
Битрейт : 5242 Кбит/сек
Ширина : 1920 пикселей
Высота : 1080 пикселей
Соотношение сторон : 16:9
Режим частоты кадров : Постоянный
Частота кадров : 23,976 кадра/сек
Цветовое пространство : YUV
Субдискретизация насыщенности : 4:2:0
Битовая глубина : 8 бит
Тип развёртки : Прогрессивная
Бит/(Пиксели*Кадры) : 0.105
Размер потока : 1,57 Гбайт (85%)
Библиотека кодирования : x264 core 112 r1834 a51816a
Настройки программы : cabac=1 / ref=1 / deblock=1:0:0 / analyse=0x3:0x133 / me=umh / subme=7 / psy=1 / psy_rd=1.00:0.00 / mixed_ref=0 / me_range=16 / chroma_me=1 / trellis=1 / 8x8dct=1 / cqm=0 / deadzone=21,11 / fast_pskip=1 / chroma_qp_offset=-2 / threads=6 / sliced_threads=0 / nr=0 / decimate=1 / interlaced=0 / constrained_intra=0 / bframes=5 / b_pyramid=0 / b_adapt=1 / b_bias=0 / direct=3 / weightb=1 / open_gop=0 / weightp=2 / keyint=250 / keyint_min=25 / scenecut=40 / intra_refresh=0 / rc_lookahead=40 / rc=2pass / mbtree=1 / bitrate=5242 / ratetol=1.0 / qcomp=0.60 / qpmin=0 / qpmax=51 / qpstep=4 / cplxblur=20.0 / qblur=0.5 / ip_ratio=1.40 / aq=1:1.00
Default : Да
Forced : Нет
Аудио #1
Идентификатор : 2
Формат : AC-3
Формат/Информация : Audio Coding 3
Расширение режима : CM (complete main)
Параметр Endianness формата : Big
Идентификатор кодека : A_AC3
Продолжительность : 43 м.
Вид битрейта : Постоянный
Битрейт : 384 Кбит/сек
Каналы : 2 канала
Расположение каналов : Front: L R
Частота : 48,0 КГц
Битовая глубина : 16 бит
Метод сжатия : С потерями
Размер потока : 121 Мбайт (6%)
Default : Да
Forced : Нет
Аудио #2
Идентификатор : 3
Формат : AC-3
Формат/Информация : Audio Coding 3
Расширение режима : CM (complete main)
Параметр Endianness формата : Big
Идентификатор кодека : A_AC3
Продолжительность : 43 м.
Вид битрейта : Постоянный
Битрейт : 384 Кбит/сек
Каналы : 2 канала
Расположение каналов : Front: L R
Частота : 48,0 КГц
Битовая глубина : 16 бит
Метод сжатия : С потерями
Размер потока : 121 Мбайт (6%)
Default : Нет
Forced : Нет

Список серий


01. Minute by Minute / Минута за минутой
02. Minute Man / Доброволец
03. Minute to Win It / Минута на победу
04. A Minute Changes Everything / Минута решает всё
05. 30 Minutes to Air / 30 минут до эфира
06. Wasted Minute / Лишняя минута
07. Waning Minute / Минуты на исходе
08. So Do Our Minutes Hasten / Минуты наши к вечности спешат
09. Minute of Silence / Минута молчания
10. Revolutions Per Minute / Минуты открытий
11. 3 Minutes to Midnight / 3 минуты до полуночи
12. The Dying Minutes / Предсмертные минуты
13. Last Minute / Последняя минута
Скриншоты:
                   
Вне форума [Профиль] [ЛС]
Похожие темы
Форум Тема Автор Торрент Отв. Посл. сообщение
./templates/default/images/folder_dl.gif Фантастика, фэнтези, ужасы, мистика Андрей Красников | Пустошь. Континент (2018) [MP3] }{@R0N
1 | 0

0 | 159

6

2018-04-08 08:15
}{@R0N Последнее
Показать сообщения:    
Ответить на тему

Текущее время: Сегодня 06:13

Часовой пояс: GMT + 3



Вы не можете начинать темы
Вы не можете отвечать на сообщения
Вы не можете редактировать свои сообщения
Вы не можете удалять свои сообщения
Вы не можете голосовать в опросах
Вы не можете прикреплять файлы к сообщениям
Вы не можете скачивать файлы