Сегодня идет свободное скачивание без начисления Download

David J. Nightingale | Искусство черно-белой фотографии (2014) [PCRec]

Ответить на тему
 
Автор
Сообщение

Omen ®

Стаж: 5 лет 9 месяцев

Сообщений: 184393

Торрент-статистика

Пост 20-Июн-2014 22:55

[Цитировать]

David J. Nightingale
Искусство черно-белой фотографии
- Автор (режиссер): David J. Nightingale
Жанр: Обучающие видеуроки
Продолжительность: 05:44:52
Качество видео: PCRec
Видеокодек: MPEG4 (AVC)
Битрейт видео: ~1 199 Kbps
Размер кадра: 1152х720
Аудиокодек: AAC
Битрейт аудио: 128 Kbps, 2 ch
Описание:
Самый влиятельный фото-блогер и профессиональный тренер в Великобритании. Преподавал искусство фотографии в Лондоне, Дубае, Софии и Флоренции. Среди заказчиков Дэвида – Министерство Туризма Багамских Островов, Совет по делам искусств Англии, компания Sony, Международный Финансовый Центр в Дубае и другие.

Что вы узнате:

Вы узнаете, как правильно оценивать диапазон и баланс тона изображения, и затем, как вносить потрясающие изменения с помощью корректирующих слоев, селекции и специальных инструментов: четыре наиболее мощных инструмента фотошопа для черно белых изображений.
Дэвид научит вас обходить основные ошибки, совершаемые при конвертации портретов в черно белые изображения.
Вы сможете правильно выделять объект, работать с тонами кожи, делать глаза более выразительными и максимально выделять то, что вы хотите подчеркнуть.
Вы поймете, как использовать уникальные и сложные тона для того чтобы оживить ваши черно белые изображения.
Вы изучите, как объединять все техники и инструменты в один мощный рабочий процесс.
Но это не просто курс про обработку фотографий. Дэвид профессиональный фотограф и будет давать вам советы по создания самих снимков и общей теории эстетики. Когда вы собираетесь создать черно белый снимок — сделать хороший кадр, это только первый шаг. И вы сможете пройти весь путь с Дэвидом Найтингейлом.
Становитесь учеником признанного мастера, и вы поймете, что такое профессиональный курс!

Список уроков:

Список уроков
Серия уроков 1. Вступление.
Урок 1. Промо видео.
Урок 2. Лекционные изображения.
Серия уроков 2. Техники преобразования в черно-белое изображение. Часть 1.
Урок 3. Техники преобразования в черно-белое изображение. Введение.
Урок 4. Преобразование в черно-белое изображение, используя "метод близнецов".
Серия уроков 3. Техники преобразования в черно-белое изображение. Продвинутая часть.
Урок 5. Преобразование в черно-белое изображение, используя смешение каналов.
Урок 6. Преобразование в черно-белое изображение, используя метод калькуляции.
Урок 7. Преобразование в черно-белое изображение, используя инструмент "черно-белое".
Урок 8. Преобразование в черно-белое изображение, используя плагин "CameraRaw".
Серия уроков 4. Повышение тонального диапазона и контраста.
Урок 9. Повышение тонального диапазона и контраста. Введение.
Урок 10. Повышение тонального диапазона и контраста, используя инструмент "кривые".
Урок 11. Маски, селекция и методы смешивания.
Серия уроков 5. Черно-белые портреты.
Урок 12. Черно-белые портреты. Введение.
Урок 13. Работа с деталями и тоном кожи.
Урок 14. Улучшение глаз объекта.
Урок 15. Преобразование портрета в черно-белое изображение, используя "Labcolormode".
Серия уроков 6. Тонирование и раскрашивание черно-белых изображений.
Урок 16. Тонирование и раскрашивание черно-белых изображений. Введение.
Урок 17. Продвинутые методы тонирования.
Серия уроков 7. Заключение.
Урок 18. Заключение.

MediaInfo:

General
Complete name : 03. Техники преобразования в черно-белое изображение. Введение.mp4
Format : MPEG-4
Format profile : Sony PSP
Codec ID : MSNV
File size : 162 MiB
Duration : 17mn 1s
Overall bit rate : 1 332 Kbps
Encoded date : UTC 2014-01-08 12:58:35
Tagged date : UTC 2014-01-08 12:58:35
Video
ID : 1
Format : AVC
Format/Info : Advanced Video Codec
Format profile : [url=mailto:Baseline@L3.1]Baseline@L3.1[/url]
Format settings, CABAC : No
Format settings, ReFrames : 1 frame
Codec ID : avc1
Codec ID/Info : Advanced Video Coding
Duration : 17mn 1s
Bit rate mode : Variable
Bit rate : 1 199 Kbps
Width : 1 152 pixels
Height : 720 pixels
Display aspect ratio : 1.600
Frame rate mode : Constant
Frame rate : 30.000 fps
Color space : YUV
Chroma subsampling : 4:2:0
Bit depth : 8 bits
Scan type : Progressive
Bits/(Pixel*Frame) : 0.048
Stream size : 146 MiB (90%)
Language : English
Encoded date : UTC 2014-01-08 12:58:35
Tagged date : UTC 2014-01-08 12:58:35
Audio
ID : 2
Format : AAC
Format/Info : Advanced Audio Codec
Format profile : LC
Codec ID : 40
Duration : 17mn 1s
Bit rate mode : Variable
Bit rate : 128 Kbps
Channel(s) : 2 channels
Channel positions : Front: L R
Sampling rate : 48.0 KHz
Compression mode : Lossy
Stream size : 15.6 MiB (10%)
Encoded date : UTC 2014-01-08 12:58:35
Tagged date : UTC 2014-01-08 12:58:35
Скриншоты:
       
Вне форума [Профиль] [ЛС]
Показать сообщения:    
Ответить на тему

Текущее время: Сегодня 04:38

Часовой пояс: GMT + 3



Вы не можете начинать темы
Вы не можете отвечать на сообщения
Вы не можете редактировать свои сообщения
Вы не можете удалять свои сообщения
Вы не можете голосовать в опросах
Вы не можете прикреплять файлы к сообщениям
Вы не можете скачивать файлы