Сегодня идет свободное скачивание без начисления Download

Симпсоны / The Simpsons / Сезон: 17 / Серии: 3, 17, 18 из 22 (Мэтт Гроенинг / Matt Groening, Дэвид Сильверман / David Silverman) [2005-2006, Мультсериал, комедия, DVB] DVO

Ответить на тему
 
Автор
Сообщение

Omen ®

Стаж: 4 года 10 месяцев

Сообщений: 190643

Торрент-статистика

Пост 17-Июн-2014 11:00

[Цитировать]

Симпсоны / The Simpsons- Страна: США
Жанр: Мультсериал, комедия
Продолжительность: 00:22:00 (одной серии)
Год выпуска: 2005-2006
Перевод: Профессиональный (двухголосый закадровый)
Русские субтитры: нет
Режиссёр: Мэтт Гроенинг / Matt Groening, Дэвид Сильверман / David Silverman
Описание: Симпсоны - это мультсериал-пародия на американский уклад жизни. Семейство Симпсонов состоит из пяти членов: папаша Гомер, мать семейства Мардж, их дочери Лиза и Мэгги и несносный подросток Барт. Симпсоны с успехом демонстрируются в США и по всему миру уже 24 года.-Список серий:
03. Milhouse of Sand and Fog
17. Kiss Kiss, Bang Bangalore
18. The Wettest Stories Ever Told-Семпл: нажми сюда
Качество: DVB
Формат: MPEG-PS
Видео кодек: MPEG
Аудио кодек: MPEG Audio Layer 2
Видео: 768x576@720x576 (4:3), 25 fps, MPEG Video, 3 211 Kbps, 0.310 bit/pixel
Аудио: 48 kHz, MPEG Layer 2, 2 ch, 192 kbps
Субтитры: нет

Подробные технические данные

Код:
General
Complete name                            : ...\The.Simpsons.S17.2005-2006.DVB.-blackaskew\The.Simpsons.S17E17.Kiss.Kiss,.Bang.Bangalore.mpg
Format                                   : MPEG-PS
File size                                : 519 MiB
Duration                                 : 20mn 54s
Overall bit rate mode                    : Variable
Overall bit rate                         : 3 472 Kbps
Writing library                          : (c) 1998-2011 Womble Multimedia, Inc. / MPEG Video Wizard DVD 5.0.1.100 (03/2011) / May 27 2011
Video
ID                                       : 224 (0xE0)
Format                                   : MPEG Video
Format version                           : Version 2
Format profile                           : Main@Main
Format settings, BVOP                    : Yes
Format settings, Matrix                  : Custom
Format settings, GOP                     : Variable
Duration                                 : 20mn 54s
Bit rate mode                            : Variable
Bit rate                                 : 3 211 Kbps
Maximum bit rate                         : 15.0 Mbps
Width                                    : 720 pixels
Height                                   : 576 pixels
Display aspect ratio                     : 4:3
Frame rate                               : 25.000 fps
Standard                                 : PAL
Color space                              : YUV
Chroma subsampling                       : 4:2:0
Bit depth                                : 8 bits
Scan type                                : Interlaced
Scan order                               : Top Field First
Compression mode                         : Lossy
Bits/(Pixel*Frame)                       : 0.310
Time code of first frame                 : 00:00:00:00
Time code source                         : Group of pictures header
Stream size                              : 480 MiB (92%)
Writing library                          : (c) 1998-2011 Womble Multimedia, Inc. / MPEG Video Wizard DVD 5.0.1.100 (03/2011) / May 27 2011
Audio
ID                                       : 192 (0xC0)
Format                                   : MPEG Audio
Format version                           : Version 1
Format profile                           : Layer 2
Duration                                 : 20mn 54s
Bit rate mode                            : Constant
Bit rate                                 : 192 Kbps
Channel count                            : 2 channels
Sampling rate                            : 48.0 KHz
Compression mode                         : Lossy
Stream size                              : 28.7 MiB (6%)
Menu

Скриншоты

Вне форума [Профиль] [ЛС]
Показать сообщения:    
Ответить на тему

Текущее время: Сегодня 10:56

Часовой пояс: GMT + 3



Вы не можете начинать темы
Вы не можете отвечать на сообщения
Вы не можете редактировать свои сообщения
Вы не можете удалять свои сообщения
Вы не можете голосовать в опросах
Вы не можете прикреплять файлы к сообщениям
Вы не можете скачивать файлы