Today is a free download without charge Download

Утро Жизни в 3Д (Андрей Соболь) [2014, Видовой фильм, HDrip-AVC] Half SideBySide / Горизонтальная анаморфная стереопара

Reply to topic
 
Author
Message

Omen ®

Longevity: 7 years 1 month

Posts: 181090

Торрент-статистика

Post 10-Jun-2014 20:07

[Quote]

Утро Жизни
Год выпуска: 2014
Страна: Россия
Жанр: Видовой фильм
Продолжительность: 00:05:55
Перевод: Не требуется
Русские субтитры: нет
Режиссер на русском: Андрей Соболь
Описание: Видовой стереофильм "Утро Жизни". Фильм снят в формате 3D, что позволяет полностью погрузиться в происходящее за экраном. Однако, обычная 2D версия сильно уступает в зрелищности, потому что проект изначально задумывался как стереофильм.
Качество: HDrip
Контейнер: MP4
Формат 3D: Half SideBySide / Горизонтальная анаморфная стереопара
Порядок ракурсов: левый ракурс первый
Видео кодек: h.264
Аудио кодек: AAC
Видео: H.264, PAL, 1920x1080, VBR, 16:9, 25 Мбит/сек, 25FPS
Аудио: AAC, 384 Кбит/сек, 48,0 КГц, стерео

MediaInfo

Общее
Полное имя : G:\Раздачи\/*spam*/\Утро Жизни\Утро Жизни (3D фильм).mp4
Формат : MPEG-4
Профиль формата : JVT
Идентификатор кодека : avc1
Размер файла : 1,03 Гбайт
Продолжительность : 5 м. 55 с.
Режим общего битрейта : Переменный
Общий поток : 25,0 Мбит/сек
Дата кодирования : UTC 2014-06-04 12:32:23
Дата пометки : UTC 2014-06-04 12:32:23
Видео
Идентификатор : 1
Формат : AVC
Формат/Информация : Advanced Video Codec
Профиль формата : High@L4.1
Параметр CABAC формата : Да
Параметр ReFrames формата : 2 кадра
Идентификатор кодека : avc1
Идентификатор кодека/Информация : Advanced Video Coding
Продолжительность : 5 м. 55 с.
Вид битрейта : Переменный
Битрейт : 24,6 Мбит/сек
Максимальный битрейт : 27,0 Мбит/сек
Ширина : 1920 пикселей
Высота : 1080 пикселей
Соотношение сторон : 16:9
Режим частоты кадров : Постоянный
Частота кадров : 25,000 кадров/сек
Цветовое пространство : YUV
Субдискретизация насыщенности : 4:2:0
Битовая глубина : 8 бит
Тип развёртки : Прогрессивная
Бит/(Пиксели*Кадры) : 0.475
Размер потока : 1,02 Гбайт (98%)
Язык : English
Дата кодирования : UTC 2014-06-04 12:32:23
Дата пометки : UTC 2014-06-04 12:32:23
Аудио
Идентификатор : 2
Формат : AAC
Формат/Информация : Advanced Audio Codec
Профиль формата : LC
Идентификатор кодека : 40
Продолжительность : 5 м. 55 с.
Продолжительность оригинала : 5 м. 55 с.
Вид битрейта : Постоянный
Битрейт : 384 Кбит/сек
Каналы : 2 канала
Расположение каналов : Front: L R
Частота : 48,0 КГц
Метод сжатия : С потерями
Размер потока : 16,3 Мбайт (2%)
Размер потока оригинала : 16,3 Мбайт (2%)
Язык : English
Дата кодирования : UTC 2014-06-04 12:32:23
Дата пометки : UTC 2014-06-04 12:32:23

Скриншоты



Other forum [Profile] [PM]
Display posts from previous:    
Reply to topic

The time now is: Today 08:43

All times are GMT + 3 Hours



You cannot post new topics in this forum
You cannot reply to topics in this forum
You cannot edit your posts in this forum
You cannot delete your posts in this forum
You cannot vote in polls in this forum
You cannot attach files in this forum
You cannot download files in this forum