Сегодня идет свободное скачивание без начисления Download

Шоу Тома и Джерри / The Tom and Jerry Show / Сезон: 1 / Серии: 2 из 26 (Даррел Ван Ситтерс / Darrell Van Citters) [2014, Мультипликация, WEB-DL 1080p] Dub + Rus Sub

Ответить на тему
 
Автор
Сообщение

Omen ®

Стаж: 4 года 10 месяцев

Сообщений: 190643

Торрент-статистика

Пост 07-Июн-2014 20:00

[Цитировать]

Шоу Тома и Джерри / The Tom and Jerry Show
Страна: США
Жанр: Мультипликация
Продолжительность: ~00:22:00
Год выпуска: 2014
Перевод: Профессиональный (дублированный)
Русские субтитры: есть-Режиссёр: Даррел Ван Ситтерс / Darrell Van Citters
Роли озвучивали: Рик Зефф, Джейсон Александр, Джои Д’Аурия, Грэй ДеЛисл, Рене Мухика, Эрик Бауза, Рэйчел МакФарлейн, Alicyn Packard, Крис Парнелл, Кри Саммер-Описание: Новые истории соперничества кота Тома и мышонка Джерри. Том упорно гоняется за Джерри и каждая новая уловка хитрого кота изобретательней предыдущей, но мышонок дает достойный отпор своему сопернику, не теряя возможности сделать ему между прочим какую-нибудь пакость.-СПАСИБО: Alukarrraaa за любезно предоставленные звуковые дорожки.-Качество: WEB-DL 1080p
Формат: MKV
Видео: AVC, 1916x1076 (16:9), 23.976 fps, 4 908 Kbps (0.099 bit/pixel)
Аудио 1: AC-3, 48.0 KHz, 2 ch, 192 Kbps, CBR (Russian)
Аудио 2: AC-3, 48.0 KHz, 2 ch, 192 Kbps, CBR (English)
Субтитры: Russian, English
Семпл: Забираем тут

Список серий:

s01e02 - Sleep Disorder / Tom's In-Tents Adventure

Подробные технические данные

ОбщееУникальный идентификатор : 227155957996573461498586039520544958981 (0xAAE4A56A6CA37608A4C48A6B8A142A05)Полное имя : D:\The Tom and Jerry Show\1080p\The Tom and Jerry Show S01E02 Sleep Disorder - Toms In-Tents Adventure WEB-DL 1080p.mkvФормат : MatroskaВерсия формата : Version 4 / Version 2Размер файла : 849 МбайтПродолжительность : 21 м.Общий поток : 5400 Кбит/секДата кодирования : UTC 2014-06-05 00:15:32Программа кодирования : mkvmerge v6.8.0 ('Theme for Great Cities') 64bit built on Mar 2 2014 21:34:26Библиотека кодирования : libebml v1.3.0 + libmatroska v1.4.1
ВидеоИдентификатор : 1Формат : AVCФормат/Информация : Advanced Video CodecПрофиль формата : High@L4.0Параметр CABAC формата : ДаПараметр ReFrames формата : 4 кадраИдентификатор кодека : V_MPEG4/ISO/AVCПродолжительность : 21 м.Битрейт : 4908 Кбит/секШирина : 1916 пикселейВысота : 1076 пикселейСоотношение сторон : 16:9Режим частоты кадров : ПостоянныйЧастота кадров : 23,976 кадра/секЦветовое пространство : YUVСубдискретизация насыщенности : 4:2:0Битовая глубина : 8 битТип развёртки : ПрогрессивнаяБит/(Пиксели*Кадры) : 0.099Размер потока : 772 Мбайт (91%)Default : ДаForced : НетОсновные цвета : BT.709Характеристики трансфера : BT.709Коэффициенты матрицы : BT.709
Аудио #1Идентификатор : 2Формат : AC-3Формат/Информация : Audio Coding 3Расширение режима : CM (complete main)Параметр Endianness формата : BigИдентификатор кодека : A_AC3Продолжительность : 21 м.Вид битрейта : ПостоянныйБитрейт : 192 Кбит/секКаналы : 2 каналаРасположение каналов : Front: L RЧастота : 48,0 КГцБитовая глубина : 16 битМетод сжатия : С потерямиРазмер потока : 30,2 Мбайт (4%)Язык : RussianDefault : ДаForced : Нет
Аудио #2Идентификатор : 3Формат : AC-3Формат/Информация : Audio Coding 3Расширение режима : CM (complete main)Параметр Endianness формата : BigИдентификатор кодека : A_AC3Продолжительность : 21 м.Вид битрейта : ПостоянныйБитрейт : 192 Кбит/секКаналы : 2 каналаРасположение каналов : Front: L RЧастота : 48,0 КГцБитовая глубина : 16 битМетод сжатия : С потерямиРазмер потока : 30,2 Мбайт (4%)Язык : EnglishDefault : НетForced : Нет
Текст #1Идентификатор : 4Формат : UTF-8Идентификатор кодека : S_TEXT/UTF8Идентификатор кодека/Информация : UTF-8 Plain TextЗаголовок : ForcedЯзык : RussianDefault : ДаForced : Нет
Текст #2Идентификатор : 5Формат : UTF-8Идентификатор кодека : S_TEXT/UTF8Идентификатор кодека/Информация : UTF-8 Plain TextЯзык : RussianDefault : НетForced : Нет
Текст #3Идентификатор : 6Формат : UTF-8Идентификатор кодека : S_TEXT/UTF8Идентификатор кодека/Информация : UTF-8 Plain TextЯзык : EnglishDefault : НетForced : Нет

Внимание! Раздача ведется путем добавления новых серий

Внимание! Раздача ведётся путём добавления новых серий; при каждом добавлении создётся новый торрент. Чтобы начать докачку новой серии, пользователям необходимо сделать следующее:
(1) остановить скачивание,
(2) удалить старый торрент у себя из клиента (старые серии удалять не надо),
(3) скачать новый торрент и запустить его у себя в клиенте вместо старого, при этом указать клиенту путь в старую папку куда и должно происходить скачивание новых серий.
Ваш клиент при этом должен произвести хеширование (проверку) старой папки (если не производит сам - помогите ему сделать это), и будет докачивать только те серии которых у вас ещё нет. Старые серии при этом не удаляются, а продолжают раздаваться!
Eсли вы уже удалили старые серии, то предотвратить повторную закачку старых серий можно, отжав галочку в соответсвующих местах при запуске нового торрента. По возможности, желательно не удалять старые серии как можно дольше чтобы релизёр не столько продолжал раздавать старые серии, а смог сконцентрироваться на новых.

Скриншоты


Вне форума [Профиль] [ЛС]
Показать сообщения:    
Ответить на тему

Текущее время: Сегодня 07:54

Часовой пояс: GMT + 3



Вы не можете начинать темы
Вы не можете отвечать на сообщения
Вы не можете редактировать свои сообщения
Вы не можете удалять свои сообщения
Вы не можете голосовать в опросах
Вы не можете прикреплять файлы к сообщениям
Вы не можете скачивать файлы