Сегодня идет свободное скачивание без начисления Download

Однажды в сказке / Once Upon a Time / Сезон: 3 / полный / 22 серии (Дин Уайт / Dean White ...) [2013 г., фэнтези, мелодрама, приключения, ..., WEB-DLRip] Dub (To4ka) + Original (Eng)

Ответить на тему
 
Автор
Сообщение

Omen ®

Стаж: 5 лет 11 месяцев

Сообщений: 184329

Торрент-статистика

Пост 14-Май-2014 20:57

[Цитировать]

Однажды в Сказке
Once Upon a Time
- Год выпуска: 2013
Жанр: Фэнтези, Драма, Приключения
Перевод: Многоголосый закадровый, любительский - To4ka
Озвучка / Автор перевода: To4kaTranslate
Режиссер: Дин Уайт, Ральф Хемекер, Дэвид Соломон
Актеры: Дженнифер Моррисон, Джиннифер Гудвин, Лана Парийя, Джошуа Даллас, Джаред Гилмор, Роберт Карлайл, Рафаэль Сбардж, Меган Ори, Эйон Бэйли, Беверли Эллиотт
Сэмпл
Дата мировой премьеры: 23 октября 2011
Дата российской премьеры: 9 февраля 2012
Описание фильма:
В конце второго сезона с помощью Крюка и его корабля Эмма, Мэри Маргарет, Дэвид, мистер Голд и Регина использовали последний волшебный боб, чтобы последовать за Генри, Грегом и Тамарой... в Неверленд. Первое на повестке дня в этом сезоне: спасти Генри. Но Неверленд - гораздо более мрачное место, чем вы думаете, и чтобы выполнить миссию, нашим героям придется столкнуться с противником более могущественным, чем сам Темный. Что Питеру Пэну нужно от Генри? Смогут ли наши герои забыть разногласия и работать вместе? Вылечат ли Аврора, Мулан и принц Филип Нила и вернут ли его к семье? Новые сказочные персонажи (Робин Гуд, русалочка Ариэль) появятся и старые знакомые вернутся.
Продолжительность: ~00:43:00 серия
Качество видео: WEB-DLRip
Видеокодек: Xvid
Битрейт видео: ~1200 Кбит/с
Размер кадра: 720x400 (16:9)
Аудио #1: Русский MP3, 128 Kbps, 2 channels, 48.0 KHz
Аудио #2: Английский MP3, 128 Kbps, 2 channels, 48.0 KHz

MediaInfo:

General
Complete name : D:\Загрузки\Once.Upon.A.Time.s03e01.WEB-DLRip.Rus.Eng.avi
Format : AVI
Format/Info : Audio Video Interleave
File size : 451 MiB
Duration : 43mn 8s
Overall bit rate : 1 462 Kbps
Writing application : VirtualDubModRus 1.5.10.2 (build 2542/release)
Writing library : VirtualDubMod build 2542/release
Video
ID : 0
Format : xvid
Codec ID : xvid
Duration : 43mn 8s
Bit rate : 1 192 Kbps
Width : 720 pixels
Height : 400 pixels
Display aspect ratio : 16:9
Frame rate : 23.976 fps
Bits/(Pixel*Frame) : 0.173
Stream size : 368 MiB (82%)
Audio #1
ID : 1
Format : MPEG Audio
Format version : Version 1
Format profile : Layer 3
Mode : Joint stereo
Mode extension : MS Stereo
Codec ID : 55
Codec ID/Hint : MP3
Duration : 43mn 7s
Bit rate mode : Constant
Bit rate : 128 Kbps
Channel count : 2 channels
Sampling rate : 48.0 KHz
Compression mode : Lossy
Stream size : 39.5 MiB (9%)
Alignment : Aligned on interleaves
Interleave, duration : 42 ms (1.00 video frame)
Interleave, preload duration : 504 ms
Audio #2
ID : 2
Format : MPEG Audio
Format version : Version 1
Format profile : Layer 3
Mode : Joint stereo
Mode extension : MS Stereo
Codec ID : 55
Codec ID/Hint : MP3
Duration : 43mn 7s
Bit rate mode : Constant
Bit rate : 128 Kbps
Channel count : 2 channels
Sampling rate : 48.0 KHz
Compression mode : Lossy
Stream size : 39.5 MiB (9%)
Alignment : Split accross interleaves
Interleave, duration : 42 ms (1.00 video frame)
Interleave, preload duration : 500 ms

Раздача ведется путем добавления новых серий!

При каждом добавлении создаётся новый торрент. Чтобы начать закачку новой серии, необходимо сделать следующее:
(1) остановить скачивание,
(2) удалить старый торрент у себя из клиента (старые серии удалять не надо),
(3) скачать новый торрент и запустить его в клиенте вместо старого, при этом указать клиенту путь в старую папку куда и должно происходить скачивание новых серий.
Ваш клиент при этом должен произвести хеширование (проверку) старой папки (если не производит сам - помогите ему сделать это), и будет докачивать только те серии которых у вас ещё нет. Старые серии при этом не удаляются, а продолжают раздаваться! Eсли вы уже удалили старые серии, то предотвратить повторную закачку старых серий можно, отжав галочку в соответствующих местах при запуске нового торрента.
Скриншоты:
       
Вне форума [Профиль] [ЛС]
Показать сообщения:    
Ответить на тему

Текущее время: Сегодня 20:57

Часовой пояс: GMT + 3



Вы не можете начинать темы
Вы не можете отвечать на сообщения
Вы не можете редактировать свои сообщения
Вы не можете удалять свои сообщения
Вы не можете голосовать в опросах
Вы не можете прикреплять файлы к сообщениям
Вы не можете скачивать файлы