Сегодня идет свободное скачивание без начисления Download

Гриффины / Family Guy / Сезон: 12 / Серии: 18,19 из 21 (Сет Макфарлейн / Seth MacFarlane) [2013, Ситком, Чёрный Юмор, Буффонада, Комедия, Пародия, WEBRip] MVO + Rus Sub

Ответить на тему
 
Автор
Сообщение

Omen ®

Стаж: 5 лет

Сообщений: 190529

Торрент-статистика

Пост 14-Май-2014 11:00

[Цитировать]

Гриффины / Family Guy
Страна: США
Жанр: Ситком, Чёрный Юмор, Буффонада, Комедия, Пародия
Продолжительность: 00:22:00
Год выпуска: 2013
Перевод: Любительский (многоголосый закадровый) Volume-6
Русские субтитры: есть
Режиссёр: Сет Макфарлейн / Seth MacFarlane
Роли озвучивали: Сет Макфарлейн, Алекс Борштейн, Сет Грин, Мила Кунис, Майк Генри
Volume-6:Dmc, Dice, Angel Wings, Kogemyaka, Graceful
Работа над звуком: Амаи Натсу
Описание: "Гриффины" (Family Guy) - анимационное ТВ-Шоу, созданное Сетом МакФерлайном (Seth MacFarlane) для телеканала FOX. Как нетрудно догадаться, главными героями шоу является семейка Гриффинов: тупой, но полный сумашедших идей, составляющих львиную долю шуток сериала, отец семейства Питер; его любящя и терпеливая жена Лойс, всеми силами пытающаяся превратить Гриффинов в нормальную семью; их интеллектуально развитый не по годам, вынашивающий идею мирового господства младший сын Стьюи; дочь-ботаник, обречённая из-за этого на одиночество и непонимание как в школе так и дома, Мэг; и 13-ти летний отсталый в развитии лет на 10, сын Крис. Также полноценным членом семьи является пёс Брайн - склонный к меланхолии эстет, спокойно наблюдающий с бокалом вина в лапе над приключениями Питера и остальных членов семьи (и это при всём притом, что остальные собаки в сериале не являются очеловеченными)
Качество: WEBRip
Формат: MP4
Видео: MPEG4 Video (H264) 1280x720 29.97fps
Аудио: MPEG Audio Layer 3 48000Hz stereo 320 Кбит/сек
Субтитры: Периодические, вшитые

Подробные технические данные

ОбщееПолное имя : C:\My downloads\Family.Guy.S12E18.Baby.Got.Black.720p.WEB-DL.2CH.x264-PSA.mp4Формат : MPEG-4Профиль формата : Base MediaИдентификатор кодека : isomРазмер файла : 523 МбайтПродолжительность : 21 м.Общий поток : 3475 Кбит/секДата кодирования : UTC 2014-05-06 17:12:35Дата пометки : UTC 2014-05-06 17:12:35Программа кодирования : Lavf54.63.104
ВидеоИдентификатор : 1Формат : AVCФормат/Информация : Advanced Video CodecПрофиль формата : Main@L3.1Параметр CABAC формата : ДаПараметр ReFrames формата : 1 кадрИдентификатор кодека : avc1Идентификатор кодека/Информация : Advanced Video CodingПродолжительность : 21 м.Битрейт : 3282 Кбит/секШирина : 1280 пикселейВысота : 720 пикселейСоотношение сторон : 16:9Режим частоты кадров : ПостоянныйЧастота кадров : 29,970 кадров/секЦветовое пространство : YUVСубдискретизация насыщенности : 4:2:0Битовая глубина : 8 битТип развёртки : ПрогрессивнаяБит/(Пиксели*Кадры) : 0.119Размер потока : 474 Мбайт (91%)Библиотека кодирования : x264 core 129Настройки программы : cabac=1 / ref=1 / deblock=1:0:0 / analyse=0x1:0x131 / me=dia / subme=2 / psy=1 / psy_rd=1.00:0.00 / mixed_ref=0 / me_range=16 / chroma_me=1 / trellis=0 / 8x8dct=0 / cqm=0 / deadzone=21,11 / fast_pskip=1 / chroma_qp_offset=0 / threads=4 / lookahead_threads=1 / sliced_threads=0 / nr=0 / decimate=1 / interlaced=0 / bluray_compat=0 / constrained_intra=0 / bframes=0 / weightp=2 / keyint=250 / keyint_min=25 / scenecut=40 / intra_refresh=0 / rc_lookahead=40 / rc=abr / mbtree=1 / bitrate=3282 / ratetol=1.0 / qcomp=0.60 / qpmin=10 / qpmax=51 / qpstep=4 / ip_ratio=1.41 / aq=1:1.00Дата кодирования : UTC 2014-05-06 17:12:35Дата пометки : UTC 2014-05-06 17:12:35
АудиоИдентификатор : 2Формат : MPEG AudioВерсия формата : Version 1Профиль формата : Layer 3Режим : Joint stereoИдентификатор кодека : 6BПродолжительность : 21 м.Duration_FirstFrame : 48 мс.Вид битрейта : ПостоянныйБитрейт : 320 Кбит/секКаналы : 2 каналаЧастота : 48,0 КГцМетод сжатия : С потерямиРазмер потока : 48,1 Мбайт (9%)Библиотека кодирования : LAME3.99.5Дата кодирования : UTC 2014-05-06 17:12:35Дата пометки : UTC 2014-05-06 17:12:35

Скриншоты

Список серий

01. Finders Keepers / Искатели Cокровищ
02. Vestigial Peter / Рудиментарный Питер
03. Quagmire's Quagmire / Куагмиру Куагмир
04. A Fistful Of Meg / Пригоршня Для Мэг
05. Boopa-Dee Bappa-Dee / Бупа-Ди Баппа-Ди
06. Life Of Brian / Жизнь Брайана
07. Into Harmony's Way / В пути Гармонии
08. Christmas Guy / Рождественский парень
09. Peter Problems / Проблемы Питера
10. Grimm Job / Работа Гримм
11. Brians a Bad Father / Брайн плохой отец
12. Mom's the Word / Слово Мамы
13. 3 Acts of God / 3 Закона Божьих
14. Fresh Heir / Новый Наследник
15. Secondhand Spoke / Пассивный курильщик
16. Herpe, the Love Sore / Герпес, любовная рана
17. The Most Interesting Man in the World / Самый Интересный Человек в Мире
18. Baby Got Black / Ребенок стал темнокожим
19. Meg Stinks! / Мег воняет!
20. He's Bla-ack! / Черный Вернулся!
Добавлена 19 Серия
Вне форума [Профиль] [ЛС]
Показать сообщения:    
Ответить на тему

Текущее время: Сегодня 04:49

Часовой пояс: GMT + 3



Вы не можете начинать темы
Вы не можете отвечать на сообщения
Вы не можете редактировать свои сообщения
Вы не можете удалять свои сообщения
Вы не можете голосовать в опросах
Вы не можете прикреплять файлы к сообщениям
Вы не можете скачивать файлы